(Opera) Vincenzo Bellini - I Capuleti e i Montecchi / Винченцо Беллини - Капулети и Монтекки (Claudio Abbado; Renata Scotto, Giacomo Aragall, Luciano Pavarotti, Agostino Ferrin), 1968 - live from Teatro alla Scala (+Bonus), FLAC(tracks+.cue),lossless


 

[Цитировать]

Vincenzo Bellini - I Capuleti e i Montecchi / Винченцо Беллини - Капулети и Монтекки (Claudio Abbado; Renata Scotto, Giacomo Aragall, Luciano Pavarotti, Agostino Ferrin)
Жанр: Opera
Страна-производитель диска: Италия
Год издания диска: 1998
Издатель (лейбл): Gala
Дата записи: 1968
Аудиокодек: FLAC
Тип рипа: tracks+.cue
Битрейт аудио: lossless
Продолжительность: 129:14
Источник: релизер (EL HUMILDE CAMPESINO)
Исполнители:
Giulietta - Renata Scotto,
Romeo - Giacomo (Jaime) Aragall,
Tebaldo - Luciano Pavarotti,
Capellio - Agostino Ferrin,
Lorenzo - Alfredo Giacomotti.
Conductor - Claudio Abbado
Orchestra and Chorus of Teatro alla Scala
Recorded live at Teatro alla Scala, Milan, January 08, 1968.

Лог создания рипаЛог создания рипа CD 1

Exact Audio Copy V1.0 beta 3 from 29. August 2011
EAC extraction logfile from 30. November 2015, 21:33
Bellini, Vincenzo / I Capuleti e i Montecchi
Used drive : HL-DT-STDVDRAM GH24NSC0 Adapter: 3 ID: 0
Read mode : SecureUtilize accurate stream : YesDefeat audio cache : YesMake use of C2 pointers : No
Read offset correction : 6Overread into Lead-In and Lead-Out : NoFill up missing offset samples with silence : YesDelete leading and trailing silent blocks : NoNull samples used in CRC calculations : YesUsed interface : Native Win32 interface for Win NT & 2000Gap handling : Appended to previous track
Used output format : User Defined EncoderSelected bitrate : 768 kBit/sQuality : HighAdd ID3 tag : NoCommand line compressor : C:\Program Files (x86)\Exact Audio Copy\FLAC\FLAC.EXEAdditional command line options : -8 -V -T "ARTIST=%artist%" -T "TITLE=%title%" -T "ALBUM=%albumtitle%" -T "DATE=%year%" -T "TRACKNUMBER=%tracknr%" -T "GENRE=%genre%" -T "PERFORMER=%albuminterpret%" -T "COMPOSER=%composer%" %haslyrics%--tag-from-file=LYRICS="%lyricsfile%"%haslyrics% -T "ALBUMARTIST=%albumartist%" -T "DISCNUMBER=%cdnumber%" -T "TOTALDISCS=%totalcds%" -T "TOTALTRACKS=%numtracks%" -T "COMMENT=%comment%" %source% -o %dest%
TOC of the extracted CD
Track | Start | Length | Start sector | End sector --------------------------------------------------------- 1 | 0:00.32 | 4:13.25 | 32 | 19031 2 | 4:13.57 | 3:30.25 | 19032 | 34806 3 | 7:44.07 | 1:59.20 | 34807 | 43751 4 | 9:43.27 | 3:31.30 | 43752 | 59606 5 | 13:14.57 | 3:54.05 | 59607 | 77161 6 | 17:08.62 | 1:29.70 | 77162 | 83906 7 | 18:38.57 | 5:06.58 | 83907 | 106914 8 | 23:45.40 | 2:53.02 | 106915 | 119891 9 | 26:38.42 | 5:41.00 | 119892 | 145466 10 | 32:19.42 | 7:19.00 | 145467 | 178391 11 | 39:38.42 | 8:06.40 | 178392 | 214881 12 | 47:45.07 | 1:00.73 | 214882 | 219454 13 | 48:46.05 | 3:54.62 | 219455 | 237066 14 | 52:40.67 | 2:55.63 | 237067 | 250254 15 | 55:36.55 | 2:37.55 | 250255 | 262084 16 | 58:14.35 | 4:03.50 | 262085 | 280359 17 | 62:18.10 | 2:54.50 | 280360 | 293459 18 | 65:12.60 | 3:05.10 | 293460 | 307344 19 | 68:17.70 | 0:54.25 | 307345 | 311419 20 | 69:12.20 | 3:12.55 | 311420 | 325874
Track 1
Filename f:\Users\Guillermo\Desktop\EAC convertidos\01 Sinfonia.wav
Pre-gap length 0:00:02.42
Peak level 77.0 % Extraction speed 1.4 X Track quality 99.9 % Test CRC A1D87845 Copy CRC A1D87845 Copy OK
Track 2
Filename f:\Users\Guillermo\Desktop\EAC convertidos\02 Aggiorna appena.wav
Peak level 76.3 % Extraction speed 1.5 X Track quality 99.8 % Test CRC A7CF336E Copy CRC A7CF336E Copy OK
Track 3
Filename f:\Users\Guillermo\Desktop\EAC convertidos\03 O di Capellio, generosi amici.wav
Peak level 50.7 % Extraction speed 1.6 X Track quality 100.0 % Test CRC 597DA1E3 Copy CRC 597DA1E3 Copy OK
Track 4
Filename f:\Users\Guillermo\Desktop\EAC convertidos\04 Rinvenirlo io saprò.wav
Peak level 57.7 % Extraction speed 1.9 X Track quality 100.0 % Test CRC 6DBD813D Copy CRC 6DBD813D Copy OK
Track 5
Filename f:\Users\Guillermo\Desktop\EAC convertidos\05 L'amo, ah! L'amo, e mi è più cara.wav
Peak level 73.6 % Extraction speed 2.1 X Track quality 100.0 % Test CRC F81E4DF2 Copy CRC F81E4DF2 Copy OK
Track 6
Filename f:\Users\Guillermo\Desktop\EAC convertidos\06 Vanne, Lorenzo.wav
Peak level 31.6 % Extraction speed 1.6 X Track quality 100.0 % Test CRC 3FC8C516 Copy CRC 3FC8C516 Copy OK
Track 7
Filename f:\Users\Guillermo\Desktop\EAC convertidos\07 Lieto del dolce incarco a cui mi elegge.wav
Peak level 64.3 % Extraction speed 2.4 X Track quality 100.0 % Test CRC 66B851A3 Copy CRC 66B851A3 Copy OK
Track 8
Filename f:\Users\Guillermo\Desktop\EAC convertidos\08 La tremenda ultrice spada.wav
Peak level 78.3 % Extraction speed 1.8 X Track quality 99.8 % Test CRC CF03C4F6 Copy CRC CF03C4F6 Copy OK
Track 9
Filename f:\Users\Guillermo\Desktop\EAC convertidos\09 Eccomi in lieta vesta.wav
Peak level 36.2 % Extraction speed 2.7 X Track quality 100.0 % Test CRC 9AAB8A98 Copy CRC 9AAB8A98 Copy OK
Track 10
Filename f:\Users\Guillermo\Desktop\EAC convertidos\10 Oh! quante volte.wav
Peak level 61.5 % Extraction speed 3.0 X Track quality 100.0 % Test CRC 81263A49 Copy CRC 81263A49 Copy OK
Track 11
Filename f:\Users\Guillermo\Desktop\EAC convertidos\11 Si, fuggire a noi non resta.wav
Peak level 62.3 % Extraction speed 3.2 X Track quality 100.0 % Test CRC B360C908 Copy CRC B360C908 Copy OK
Track 12
Filename f:\Users\Guillermo\Desktop\EAC convertidos\12 Odi tu.wav
Peak level 54.4 % Extraction speed 1.9 X Track quality 100.0 % Test CRC 43D164CB Copy CRC 43D164CB Copy OK
Track 13
Filename f:\Users\Guillermo\Desktop\EAC convertidos\13 Vieni, ah! vieni, in me riposa.wav
Peak level 58.5 % Extraction speed 3.1 X Track quality 100.0 % Test CRC 0EB9D3E3 Copy CRC 0EB9D3E3 Copy OK
Track 14
Filename f:\Users\Guillermo\Desktop\EAC convertidos\14 Lieta notte, avventurosa.wav
Pre-gap length 0:00:02.66
Peak level 49.2 % Extraction speed 2.9 X Track quality 100.0 % Test CRC 4F755E7B Copy CRC 4F755E7B Copy OK
Track 15
Filename f:\Users\Guillermo\Desktop\EAC convertidos\15 Deh! Per pietà t'arresta.wav
Peak level 55.7 % Extraction speed 2.3 X Track quality 99.8 % Test CRC D3A14A21 Copy CRC D3A14A21 Copy OK
Track 16
Filename f:\Users\Guillermo\Desktop\EAC convertidos\16 Tace il fragor.wav
Peak level 39.1 % Extraction speed 3.3 X Track quality 100.0 % Test CRC 4D32D3D7 Copy CRC 4D32D3D7 Copy OK
Track 17
Filename f:\Users\Guillermo\Desktop\EAC convertidos\17 Vieni, io te lo chiedo in nome della giurata fe.wav
Peak level 48.4 % Extraction speed 3.1 X Track quality 100.0 % Test CRC 9CA7CB94 Copy CRC 9CA7CB94 Copy OK
Track 18
Filename f:\Users\Guillermo\Desktop\EAC convertidos\18 Oh notte raddensa.wav
Peak level 42.8 % Extraction speed 2.6 X Track quality 99.8 % Test CRC 82DFF2D5 Copy CRC 82DFF2D5 Copy OK
Track 19
Filename f:\Users\Guillermo\Desktop\EAC convertidos\19 Accoriam,,, Romeo!.wav
Peak level 56.8 % Extraction speed 2.1 X Track quality 100.0 % Test CRC D6EE9DB3 Copy CRC D6EE9DB3 Copy OK
Track 20
Filename f:\Users\Guillermo\Desktop\EAC convertidos\20 Al furor che si ridesta.wav
Peak level 72.1 % Extraction speed 3.3 X Track quality 100.0 % Test CRC 31F8ECE7 Copy CRC 31F8ECE7 Copy OK
No errors occurred
End of status report
==== Log checksum F81E35F2760BBAFAABD85B5E325A44261FC96DD5B54CF3CCE6D7059601C7C423 ====

Лог создания рипа CD 2

Exact Audio Copy V1.0 beta 3 from 29. August 2011
EAC extraction logfile from 1. December 2015, 7:18
Bellini Vincenzo / I Capuleti e i Montecchi
Used drive : HL-DT-STDVDRAM GH24NSC0 Adapter: 3 ID: 0
Read mode : SecureUtilize accurate stream : YesDefeat audio cache : YesMake use of C2 pointers : No
Read offset correction : 6Overread into Lead-In and Lead-Out : NoFill up missing offset samples with silence : YesDelete leading and trailing silent blocks : NoNull samples used in CRC calculations : YesUsed interface : Native Win32 interface for Win NT & 2000Gap handling : Appended to previous track
Used output format : User Defined EncoderSelected bitrate : 768 kBit/sQuality : HighAdd ID3 tag : NoCommand line compressor : C:\Program Files (x86)\Exact Audio Copy\FLAC\FLAC.EXEAdditional command line options : -8 -V -T "ARTIST=%artist%" -T "TITLE=%title%" -T "ALBUM=%albumtitle%" -T "DATE=%year%" -T "TRACKNUMBER=%tracknr%" -T "GENRE=%genre%" -T "PERFORMER=%albuminterpret%" -T "COMPOSER=%composer%" %haslyrics%--tag-from-file=LYRICS="%lyricsfile%"%haslyrics% -T "ALBUMARTIST=%albumartist%" -T "DISCNUMBER=%cdnumber%" -T "TOTALDISCS=%totalcds%" -T "TOTALTRACKS=%numtracks%" -T "COMMENT=%comment%" %source% -o %dest%
TOC of the extracted CD
Track | Start | Length | Start sector | End sector --------------------------------------------------------- 1 | 0:00.32 | 4:00.58 | 32 | 18089 2 | 4:01.15 | 3:44.52 | 18090 | 34941 3 | 7:45.67 | 1:35.03 | 34942 | 42069 4 | 9:20.70 | 6:30.32 | 42070 | 71351 5 | 15:51.27 | 3:58.65 | 71352 | 89266 6 | 19:50.17 | 5:50.35 | 89267 | 115551 7 | 25:40.52 | 3:16.73 | 115552 | 130324 8 | 28:57.50 | 3:22.55 | 130325 | 145529 9 | 32:20.30 | 5:23.52 | 145530 | 169806 10 | 37:44.07 | 3:25.20 | 169807 | 185201 11 | 41:09.27 | 2:41.55 | 185202 | 197331 12 | 43:51.07 | 5:17.65 | 197332 | 221171 13 | 49:08.72 | 4:37.63 | 221172 | 242009 14 | 53:46.60 | 4:54.70 | 242010 | 264129 15 | 58:41.55 | 1:52.70 | 264130 | 272599 16 | 60:34.50 | 4:25.62 | 272600 | 292536 17 | 65:00.37 | 4:37.25 | 292537 | 313336 18 | 69:37.62 | 2:07.13 | 313337 | 322874
Track 1
Filename f:\Users\Guillermo\Desktop\EAC convertidos\01 Né alcun ritorna!.wav
Pre-gap length 0:00:02.42
Peak level 60.4 % Extraction speed 1.6 X Track quality 100.0 % Test CRC ACD1CA8E Copy CRC ACD1CA8E Copy OK
Track 2
Filename f:\Users\Guillermo\Desktop\EAC convertidos\02 Morte io non temo.wav
Peak level 49.7 % Extraction speed 1.7 X Track quality 100.0 % Test CRC CCA747B7 Copy CRC CCA747B7 Copy OK
Track 3
Filename f:\Users\Guillermo\Desktop\EAC convertidos\03 Prendi...gl'istanti volano.wav
Peak level 67.2 % Extraction speed 1.5 X Track quality 100.0 % Test CRC AFD51FBF Copy CRC AFD51FBF Copy OK
Track 4
Filename f:\Users\Guillermo\Desktop\EAC convertidos\04 Deh! padre mio.wav
Peak level 60.9 % Extraction speed 2.2 X Track quality 100.0 % Test CRC 1F831263 Copy CRC 1F831263 Copy OK
Track 5
Filename f:\Users\Guillermo\Desktop\EAC convertidos\05 Deserte è il loco.wav
Peak level 44.8 % Extraction speed 2.2 X Track quality 100.0 % Test CRC 13812BBD Copy CRC 13812BBD Copy OK
Track 6
Filename f:\Users\Guillermo\Desktop\EAC convertidos\06 Olà, chi sei, che ardisci.wav
Peak level 71.0 % Extraction speed 2.5 X Track quality 100.0 % Test CRC 29DB1006 Copy CRC 29DB1006 Copy OK
Track 7
Filename f:\Users\Guillermo\Desktop\EAC convertidos\07 Ella è morta di dolore, o sciagurato.wav
Peak level 70.9 % Extraction speed 2.4 X Track quality 100.0 % Test CRC 96E682BF Copy CRC 96E682BF Copy OK
Track 8
Filename f:\Users\Guillermo\Desktop\EAC convertidos\08 Siam Giunti.wav
Peak level 49.5 % Extraction speed 2.5 X Track quality 100.0 % Test CRC 62948D5D Copy CRC 62948D5D Copy OK
Track 9
Filename f:\Users\Guillermo\Desktop\EAC convertidos\09 Ecco la tomba.wav
Peak level 45.7 % Extraction speed 2.8 X Track quality 100.0 % Test CRC B00A2F6E Copy CRC B00A2F6E Copy OK
Track 10
Filename f:\Users\Guillermo\Desktop\EAC convertidos\10 Tu sola, o mia Giulietta.wav
Peak level 42.2 % Extraction speed 2.7 X Track quality 100.0 % Test CRC C55A68DA Copy CRC C55A68DA Copy OK
Track 11
Filename f:\Users\Guillermo\Desktop\EAC convertidos\11 O tu, mia sola speme.wav
Peak level 65.5 % Extraction speed 2.6 X Track quality 100.0 % Test CRC 9663779C Copy CRC 9663779C Copy OK
Track 12
Filename f:\Users\Guillermo\Desktop\EAC convertidos\12 Ah! crudel! che mai facesti.wav
Peak level 67.6 % Extraction speed 3.1 X Track quality 100.0 % Test CRC 0CCB44F5 Copy CRC 0CCB44F5 Copy OK
Track 13
Filename f:\Users\Guillermo\Desktop\EAC convertidos\13 Bonus track, Renata Scotto, La Sonnambula, Come per me sereno.wav
Pre-gap length 0:00:04.36
Peak level 85.4 % Extraction speed 3.2 X Track quality 100.0 % Test CRC 16AF604D Copy CRC 16AF604D Copy OK
Track 14
Filename f:\Users\Guillermo\Desktop\EAC convertidos\14 Bonus track, Renata Scotto, Don Pasquale, Quel guardo il cavalier.wav
Pre-gap length 0:00:01.90
Peak level 83.7 % Extraction speed 3.3 X Track quality 100.0 % Test CRC ABE1CB1E Copy CRC ABE1CB1E Copy OK
Track 15
Filename f:\Users\Guillermo\Desktop\EAC convertidos\15 Bonus track, Renata Scotto, La Traviata, Amami Alfredo.wav
Pre-gap length 0:00:01.84
Peak level 80.8 % Extraction speed 2.7 X Track quality 100.0 % Test CRC 65234FD8 Copy CRC 65234FD8 Copy OK
Track 16
Filename f:\Users\Guillermo\Desktop\EAC convertidos\16 Bonus track, Renata Scotto, La Traviata, Addio del passato.wav
Pre-gap length 0:00:01.90
Peak level 78.2 % Extraction speed 3.4 X Track quality 100.0 % Test CRC BF583ED4 Copy CRC BF583ED4 Copy OK
Track 17
Filename f:\Users\Guillermo\Desktop\EAC convertidos\17 Bonus track, Renata Scotto, I Pescatori di Perle, Siccome un di.wav
Pre-gap length 0:00:01.93
Peak level 73.1 % Extraction speed 3.5 X Track quality 100.0 % Test CRC 6CFA2ADA Copy CRC 6CFA2ADA Copy OK
Track 18
Filename f:\Users\Guillermo\Desktop\EAC convertidos\18 Bonus track, Renata Scotto, Lodoletta, Flammen perdonami.wav
Pre-gap length 0:00:01.96
Peak level 78.5 % Extraction speed 2.3 X Track quality 99.8 % Test CRC 1316D9A1 Copy CRC 1316D9A1 Copy OK
No errors occurred
End of status report
==== Log checksum 6145F51D41D0B9678E3644EE486E6A1A4C803D9D54947005B76D3887BF860112 ====

Содержание индексной карты (.CUE)Содержание индексной карты (.CUE) CD 1

REM GENRE OperaREM DATE 1968REM DISCID 2210F914REM COMMENT "ExactAudioCopy v1.0b3"FILE "01 Sinfonia.wav" WAVE TRACK 01 AUDIO PREGAP 00:00:32 INDEX 01 00:00:00FILE "02 Aggiorna appena.wav" WAVE TRACK 02 AUDIO INDEX 01 00:00:00FILE "03 O di Capellio, generosi amici.wav" WAVE TRACK 03 AUDIO INDEX 01 00:00:00FILE "04 Rinvenirlo io saprт.wav" WAVE TRACK 04 AUDIO INDEX 01 00:00:00FILE "05 L'amo, ah! L'amo, e mi и piщ cara.wav" WAVE TRACK 05 AUDIO INDEX 01 00:00:00FILE "06 Vanne, Lorenzo.wav" WAVE TRACK 06 AUDIO INDEX 01 00:00:00FILE "07 Lieto del dolce incarco a cui mi elegge.wav" WAVE TRACK 07 AUDIO INDEX 01 00:00:00FILE "08 La tremenda ultrice spada.wav" WAVE TRACK 08 AUDIO INDEX 01 00:00:00FILE "09 Eccomi in lieta vesta.wav" WAVE TRACK 09 AUDIO INDEX 01 00:00:00FILE "10 Oh! quante volte.wav" WAVE TRACK 10 AUDIO INDEX 01 00:00:00FILE "11 Si, fuggire a noi non resta.wav" WAVE TRACK 11 AUDIO INDEX 01 00:00:00FILE "12 Odi tu.wav" WAVE TRACK 12 AUDIO INDEX 01 00:00:00FILE "13 Vieni, ah! vieni, in me riposa.wav" WAVE TRACK 13 AUDIO INDEX 01 00:00:00 TRACK 14 AUDIO INDEX 00 03:52:12FILE "14 Lieta notte, avventurosa.wav" WAVE INDEX 01 00:00:00FILE "15 Deh! Per pietа t'arresta.wav" WAVE TRACK 15 AUDIO INDEX 01 00:00:00FILE "16 Tace il fragor.wav" WAVE TRACK 16 AUDIO INDEX 01 00:00:00FILE "17 Vieni, io te lo chiedo in nome della giurata fe.wav" WAVE TRACK 17 AUDIO INDEX 01 00:00:00FILE "18 Oh notte raddensa.wav" WAVE TRACK 18 AUDIO INDEX 01 00:00:00FILE "19 Accoriam,,, Romeo!.wav" WAVE TRACK 19 AUDIO INDEX 01 00:00:00FILE "20 Al furor che si ridesta.wav" WAVE TRACK 20 AUDIO INDEX 01 00:00:00

Содержание индексной карты (.CUE) CD 2

REM GENRE OperaREM DATE 1968REM DISCID 0510D112REM COMMENT "ExactAudioCopy v1.0b3"FILE "01 Nй alcun ritorna!.wav" WAVE TRACK 01 AUDIO PREGAP 00:00:32 INDEX 01 00:00:00FILE "02 Morte io non temo.wav" WAVE TRACK 02 AUDIO INDEX 01 00:00:00FILE "03 Prendi...gl'istanti volano.wav" WAVE TRACK 03 AUDIO INDEX 01 00:00:00FILE "04 Deh! padre mio.wav" WAVE TRACK 04 AUDIO INDEX 01 00:00:00FILE "05 Deserte и il loco.wav" WAVE TRACK 05 AUDIO INDEX 01 00:00:00FILE "06 Olа, chi sei, che ardisci.wav" WAVE TRACK 06 AUDIO INDEX 01 00:00:00FILE "07 Ella и morta di dolore, o sciagurato.wav" WAVE TRACK 07 AUDIO INDEX 01 00:00:00FILE "08 Siam Giunti.wav" WAVE TRACK 08 AUDIO INDEX 01 00:00:00FILE "09 Ecco la tomba.wav" WAVE TRACK 09 AUDIO INDEX 01 00:00:00FILE "10 Tu sola, o mia Giulietta.wav" WAVE TRACK 10 AUDIO INDEX 01 00:00:00FILE "11 O tu, mia sola speme.wav" WAVE TRACK 11 AUDIO INDEX 01 00:00:00FILE "12 Ah! crudel! che mai facesti.wav" WAVE TRACK 12 AUDIO INDEX 01 00:00:00 TRACK 13 AUDIO INDEX 00 05:13:38FILE "13 Bonus track, Renata Scotto, La Sonnambula, Come per me sereno.wav" WAVE INDEX 01 00:00:00 TRACK 14 AUDIO INDEX 00 04:35:70FILE "14 Bonus track, Renata Scotto, Don Pasquale, Quel guardo il cavalier.wav" WAVE INDEX 01 00:00:00 TRACK 15 AUDIO INDEX 00 04:53:07FILE "15 Bonus track, Renata Scotto, La Traviata, Amami Alfredo.wav" WAVE INDEX 01 00:00:00 TRACK 16 AUDIO INDEX 00 01:51:02FILE "16 Bonus track, Renata Scotto, La Traviata, Addio del passato.wav" WAVE INDEX 01 00:00:00 TRACK 17 AUDIO INDEX 00 04:23:67FILE "17 Bonus track, Renata Scotto, I Pescatori di Perle, Siccome un di.wav" WAVE INDEX 01 00:00:00 TRACK 18 AUDIO INDEX 00 04:35:28FILE "18 Bonus track, Renata Scotto, Lodoletta, Flammen perdonami.wav" WAVE INDEX 01 00:00:00

Треклист

Disc 1:
Act I:
1. Sinfonia
2. Scene 1: Aggiona appena … (Chorus)
3. Scene 1: O di Capello, generosi amici (Tebaldo, Capellio, Lorenzo, Chorus)
5. Scene 1: Rinvenirlo io sapro (Capellio)
6. Scene 1: L'amo, ah! l’amo, (Tebaldo, Capellio, Chorus, Lorenzo)
7. Scene 1: Vanne Lorenzo: e tu, che il puoi (Capellio, Tebaldo)
8. Scene 1: Lieto del dolce incarco (Romeo, Tebaldo, Capellio, Chorus)
11. Scene 1: La tremenda ultrice spada (Romeo, Chorus)
12. Scene 2: Eccomi in lieta vesta (Giulietta)
13. Scene 2: Oh! Quante volte, oh quante (Giulietta)
15. Scene 2: Si, fuggire (Romeo, Giulietta)
17. I Scene 2: Odi tu? L'altar funesto (Romeo, Giulietta)
18. Scene 2: Vieni, ah!, vieni, e in me riposa (Romeo, Giulietta)
19. Scene 3: Lieta notte, avventurosa (Chorus)
20. Scene 3: Deh! Per pieta, t'arresta (Lorenzo, Romeo, Chorus)
21. Scene 3: Tace il fragor (Giulietta)
23. Scene 3: Vieni (Romeo)
24. Scene 3: Oh notte, raddensa (Capellio, Tebaldo, Lorenzo, Giulietta, Romeo)
25. Scene 3: Accorriam … Romeo! (Chorus, Tebaldo, Capellio, Romeo, Giulietta, Lorenzo)
26. Scene 3: Al furor (Tebaldo)
Disc 2:
Act II:
2. Scene 1: Ne alcun ritorna! … (Giulietta, Lorenzo)
3. Scene 1: Morte io non temo il sai (Giulietta, Lorenzo)
4. Scene 1: Prendi, gl'isntanti volano (Lorenzo, Giulietta, Capellio, Chorus)
5. Scene 1: Deh! padre mio! (Giulietta)
8. Scene 2: Deserto e il luogo (Romeo, Tebaldo)
10. Scene 2: Ola! (Tebaldo)
11. Scene 2: Ella e morta, o sciagurato (Romeo, Tebaldo)
13. Scene 3: Siam giunti (Coro)
14. Scene 3: Ecco la tomba … (Romeo, Chorus)
15. Scene 3: Tu sola, o mia Giulietta (Romeo)
17. Scene 3: O tu mia sola speme (Romeo)
18. Scene 3: Ah! Crudel! Che mai facesti … (Giulietta, Romeo)
BONUS TRACKS:
Renata Scotto's performings of Italian Arias by Giuseppe Verdi, Vincenzo Bellini, Gaetano Donizetti, Pietro Mascagni.



Показать сообщения:    

Текущее время: 09-Дек 22:18

Часовой пояс: UTC + 3


Вы не можете начинать темы
Вы не можете отвечать на сообщения
Вы не можете редактировать свои сообщения
Вы не можете удалять свои сообщения
Вы не можете голосовать в опросах
Вы не можете прикреплять файлы к сообщениям
Вы не можете скачивать файлы