Гражданин Ходорковский / Citizen Khodorkovsky (Эрик Бергкраут / Eric Bergkraut) [2015, Док. фильм, SATRip] Sub


Статистика раздачи [Обновить пиров]
Размер:  324 MB   |    Зарегистрирован:  11 месяцев   |    Скачан:  1 раз

Полного источника не было: 8 месяцев 27 дней

 
   
 
 
 

[Цитировать]

Гражданин Ходорковский / Citizen Khodorkovsky
Дата/Год выпуска: 2015
Страна: Швейцария - Германия - Россия
Жанр: Док. фильм
Продолжительность: 00:52:16
Перевод: Субтитры
Русские субтитры: есть
Формат субтитров: hardsub (неотключаемые)
Оригинальная аудиодорожка: английский
Режиссер: Эрик Бергкраут / Eric Bergkraut
Описание: Документальный фильм о Михаиле Ходорковском, снятый уже после его освобождения из колонии.
SATRip от : Твид
Доп. информация: Любезно предоставлено клубом Fenix
Сэмпл: http://multi-up.com/1082046
качество: SATRip
формат: AVI
Видео: XviD, 726 Кбит/сек, 640x480, 25 fps, 0.095 bits/pixel
Аудио: 0x0055(MP3) ID'd as MPEG-1 Layer 3, 128 kb/s (2/ch, stereo) VBR

MediaInfo

ОбщееПолное имя : D:\Fillms-1\Гражданин Ходорковский\Grazhdanin Hodorkovskii.SAT-rip.by.Твид.fenixclub.aviФормат : AVIФормат/Информация : Audio Video InterleaveРазмер файла : 324 МбайтПродолжительность : 52 м.Режим общего битрейта : ПеременныйОбщий поток : 867 Кбит/сек
ВидеоИдентификатор : 0Формат : MPEG-4 VisualПрофиль формата : Advanced Simple@L5Параметр BVOP формата : 2Параметр QPel формата : НетПараметр GMC формата : Без точки переходаПараметр матрицы формата : Default (H.263)Идентификатор кодека : XVIDИдентификатор кодека/Подсказка : XviDПродолжительность : 52 м.Битрейт : 726 Кбит/секШирина : 640 пикселейВысота : 480 пикселейСоотношение сторон : 4:3Частота кадров : 25,000 кадров/секЦветовое пространство : YUVСубдискретизация насыщенности : 4:2:0Битовая глубина : 8 битТип развёртки : ПрогрессивнаяМетод сжатия : С потерямиБит/(Пиксели*Кадры) : 0.095Размер потока : 271 Мбайт (84%)Библиотека кодирования : XviD 1.1.2 (UTC 2006-11-01)
АудиоИдентификатор : 1Формат : MPEG AudioВерсия формата : Version 1Профиль формата : Layer 3Режим : Joint stereoРасширение режима : MS StereoИдентификатор кодека : 55Идентификатор кодека/Подсказка : MP3Продолжительность : 52 м.Вид битрейта : ПеременныйБитрейт : 128 Кбит/секКаналы : 2 каналаЧастота : 48,0 КГцМетод сжатия : С потерямиРазмер потока : 47,9 Мбайт (15%)Выравнивание : Соединение по промежуткамПродолжительность промежутка : 24 мс. (0,60 видеокадр)Время предзагрузки промежутка : 490 мс.Библиотека кодирования : LAMEUUU ¦дА“Ґ¶«іѕв>

Скриншоты

[teatrix.ru].t12519.torrent 
Торрент: Зарегистрирован [ 2016-01-03 10:35 ] · E744ACE8133EDA6A54BD656A7258EF10F721B5F7

Скачать .torrent

Скачать

13 KB

Статус: проверено
Скачан: 1 раз
Размер: 324 MB
terms.php



Быстрый ответ

Имя:

      
Для отправки сообщений необходимо включить JavaScript
Показать сообщения:    

Текущее время: 04-Дек 09:07

Часовой пояс: UTC + 3


Вы можете начинать темы
Вы можете отвечать на сообщения
Вы не можете редактировать свои сообщения
Вы не можете удалять свои сообщения
Вы не можете голосовать в опросах
Вы не можете прикреплять файлы к сообщениям
Вы можете скачивать файлы