Священная гора / The Holy Mountain (Алехандро Ходоровски / Alexandro Jodorowsky) [1973, США, Мексика, фантастика, фэнтези, комедия, приключения, BDRip] AVO (Алексеев)


Статистика раздачи [Обновить пиров]
Размер:  1.46 GB   |    Зарегистрирован:  11 месяцев 4 дня   |    Скачан:  0 раз

Полного источника не было: Никогда

 
   
 
 
 

[Цитировать]

Священная гора / The Holy Mountain
Страна: США, Мексика
Жанр: фантастика, фэнтези, комедия, приключения
Год выпуска: 1973
Продолжительность: 01:53:28
Перевод: Авторский (одноголосый закадровый) - Антон Алексеев
Cубтитры: нет

Режиссер: Алехандро Ходоровски / Alexandro Jodorowsky
В ролях: Алехандро Ходоровский, Орасио Салинас, Замира Саундерс, Хуан Феррара, Адриана Пейдж, Берт Клайнер, Валери Ходоровски, Никки Николс, Ричард Рутовски, Луис Ломели, Ана Де Саде, Летиция Роблз, Конни Де Ла Мора, Дэвид Капралик, Жаклин Вольтер, Пабло Ледер, Бобби Камерон
Описание: Христос освобождается от оков и оказывается в современном городе, средоточии человеческих пороков, культа смерти и секса. Здесь он и попадает в таинственную эзотерическую школу магов. Там же оказываются и молодые развращенные жизнью персонажи со всей Солнечной системы. Гуру и его ученики отправляются к Священной горе, где живут девять мудрецов, знающих секрет бессмертия…
Качество видео: BDRip
Формат видео: AVI
Видео: 720x304 (2.37:1), 23.976 fps, XviD build 73 ~1636 kbps avg, 0.31 bit/pixel
Аудио: 48 kHz, AC3 Dolby Digital, 2/0 (L,R) ch, ~192 kbps

MediaInfo

Общее
Полное имя : H:\The.Holy.Mountain.1973.bdrip_[1.46]_[teko].avi
Формат : AVI
Формат/Информация : Audio Video Interleave
Размер файла : 1,46 Гбайт
Продолжительность : 1 ч. 53 м.
Общий поток : 1838 Кбит/сек
Программа кодирования : VirtualDubMod 1.5.10.3 | www.virtualdub-fr.org || (build 2550/release)
Библиотека кодирования : VirtualDubMod build 2550/release
Видео
Идентификатор : 0
Формат : MPEG-4 Visual
Профиль формата : Advanced Simple@L5
Параметр BVOP формата : 1
Параметр QPel формата : Нет
Параметр GMC формата : Без точки перехода
Параметр матрицы формата : Выборочная
Идентификатор кодека : XVID
Идентификатор кодека/Подсказка : XviD
Продолжительность : 1 ч. 53 м.
Битрейт : 1637 Кбит/сек
Ширина : 720 пикселей
Высота : 304 пикселя
Соотношение сторон : 2,35:1
Частота кадров : 23,976 кадра/сек
Цветовое пространство : YUV
Субдискретизация насыщенности : 4:2:0
Битовая глубина : 8 бит
Тип развёртки : Прогрессивная
Метод сжатия : С потерями
Бит/(Пиксели*Кадры) : 0.312
Размер потока : 1,30 Гбайт (89%)
Библиотека кодирования : XviD 73
Аудио
Идентификатор : 1
Формат : AC-3
Формат/Информация : Audio Coding 3
Расширение режима : CM (complete main)
Параметр Endianness формата : Big
Идентификатор кодека : 2000
Продолжительность : 1 ч. 53 м.
Вид битрейта : Постоянный
Битрейт : 192 Кбит/сек
Каналы : 2 канала
Расположение каналов : Front: L R
Частота : 48,0 КГц
Битовая глубина : 16 бит
Метод сжатия : С потерями
Размер потока : 156 Мбайт (10%)
Выравнивание : Разделение по промежуткам
Продолжительность промежутка : 42 мс. (1,00 видеокадр)
Время предзагрузки промежутка : 500 мс.
[teatrix.ru].t12520.torrent 
Торрент: Зарегистрирован [ 2016-01-03 23:20 ] · FA230554EDFD944F6697F53305AE9E06FACB25E9

Скачать .torrent

Скачать

15 KB

Статус: проверено
Скачан: 0 раз
Размер: 1.46 GB
terms.php



Быстрый ответ

Имя:

      
Для отправки сообщений необходимо включить JavaScript
Показать сообщения:    

Текущее время: 08-Дек 21:09

Часовой пояс: UTC + 3


Вы можете начинать темы
Вы можете отвечать на сообщения
Вы не можете редактировать свои сообщения
Вы не можете удалять свои сообщения
Вы не можете голосовать в опросах
Вы не можете прикреплять файлы к сообщениям
Вы можете скачивать файлы