Французские кальвинисты / Камизары / Les Camisards (Рене Аллио / René Allio) [1972, Франция, исторический, драма, DVDRip] Sub Rus (Lisok) + Original Fre


Статистика раздачи [Обновить пиров]
Размер:  1.46 GB   |    Зарегистрирован:  10 месяцев 30 дней   |    Скачан:  0 раз

Полного источника не было: Никогда

 
   
 
 
 

[Цитировать]

Французские кальвинисты / Камизары / Les Camisards Страна: Франция
Жанр: исторический, драма
Год выпуска: 1972
Продолжительность: 01:44:52
Перевод: Субтитры Доп. инфо о переводе Lisok
Cубтитры: русские
Оригинальная аудиодорожка: французский
Режиссер: Рене Аллио / René Allio
В ролях: Филипп Клевено, Жак Дебари, Жерар Дезарт, Жан Буиз, Доминик Лабурье, Франсуа Марторе, Рюфюс, Юбер Жиню, Анна Дельбе, Габриэль Гаскон, Андре Рейбаз, Изабель Садоян, Флоренс Дюнойе, Мартин Дюмон, Кристин Лоран, Элен Венсан, Женевьев Мниш, Жанин Сушон, Кристиана Рорато, Огюст Бергер, Пьер Диос, Жан Бенгиги, Морис Бенишу, Рауль Бийре, Филипп Наон, Николас Филибер, Оливье Мерлин
Описание: В 1685 году Людовик XIV запретил протестантизм, отменив Нантский эдикт. Протестантов заставляли менять веру, разрушали их храмы, изгоняли из страны их пасторов. Непокорных наказывали каторгой и конфискацией имущества. Тысячи семей гугенотов, отказываясь отречься от своей веры, покидали Францию. Но были и те, что оставались и боролись. В Южной Франции, несмотря на репрессии, протестантские крестьяне-горцы отказывались от "папской истины". За 17 лет ситуация обострилась. Король отказывался идти на уступки. Жертвы - отступиться. Вплоть до того дня, когда, устав быть жертвами, они истребили своих палачей. Центром восстания (1702-1705 г.г.) стал горный массив Севенны на правом берегу Роны, в провинции Лангедок. 24 июля 1702 года Эспри Сегье, Авраам Мазель, Жедеон Лапорт и их приверженцы убили католического архиепископа Франсуа дю Шела де Ланглана, перебили жителей замка, сожгли 2 церкви, уничтожив их священников. Камизары начали громить католические церкви, дома духовенства, откупщиков и фискалов, отбирали собранные налоги и церковную десятину. Усмирить восстание удалось лишь к весне 1705, когда правительство пошло на уступки по налоговым вопросам. Несмотря на поражение восстания, отдельные вспышки войны продолжались до 1715 года…
Восставших называли камизарами (рубашечниками) от лангедокского слова «camiso» — «крестьянская рубашка», поскольку они были одеты в белые рубашки поверх доспехов во время боевых действий ночью.
Доп. информация: Рип с собственного ДВД. Большое спасибо за перевод на слух (по моей просьбе) и русские сабы Lisok / Lisochek!
Сэмпл: http://multi-up.com/1082227
Качество видео: DVDRip
Формат видео: AVI
Видео: XviD, 672x400 (1.68:1), 25.000 fps, 1791 kbps avg
Аудио: AC3 Dolby Digital, 48 kHz, 2/0 (L,R) ch, 192.00 kbps
Формат субтитров: softsub (SRT)
Доп. информация о субтитрах: Lisok

MediaInfo

General
Complete name : D:\Les Camisards_1972\Les Camisards_1972.DVDRip.Fr.rus.sub.avi
Format : AVI
Format/Info : Audio Video Interleave
File size : 1.46 GiB
Duration : 1h 44mn
Overall bit rate : 1 993 Kbps
Writing application : VirtualDubMod 1.5.10.3 | www.virtualdub-fr.org || (build 2550/release)
Writing library : VirtualDubMod build 2550/release
Video
ID : 0
Format : MPEG-4 Visual
Format profile : Advanced Simple@L5
Format settings, BVOP : 1
Format settings, QPel : No
Format settings, GMC : No warppoints
Format settings, Matrix : Custom
Codec ID : XVID
Codec ID/Hint : XviD
Duration : 1h 44mn
Bit rate : 1 791 Kbps
Width : 672 pixels
Height : 400 pixels
Display aspect ratio : 1.68:1
Frame rate : 25.000 fps
Color space : YUV
Chroma subsampling : 4:2:0
Bit depth : 8 bits
Scan type : Progressive
Compression mode : Lossy
Bits/(Pixel*Frame) : 0.267
Stream size : 1.31 GiB (90%)
Writing library : XviD 73
Audio
ID : 1
Format : AC-3
Format/Info : Audio Coding 3
Mode extension : CM (complete main)
Format settings, Endianness : Big
Codec ID : 2000
Duration : 1h 44mn
Bit rate mode : Constant
Bit rate : 192 Kbps
Channel(s) : 2 channels
Channel positions : Front: L R
Sampling rate : 48.0 KHz
Compression mode : Lossy
Stream size : 144 MiB (10%)
Alignment : Split accross interleaves
Interleave, duration : 40 ms (1.00 video frame)
Interleave, preload duratio : 500 ms

Скриншоты

Фрагмент субтитров

111
00:10:28,480 --> 00:10:31,220
Я поймал его за шею,
даже не слезая с лошади.
112
00:10:31,340 --> 00:10:32,900
Может, ему было страшно?
113
00:10:32,900 --> 00:10:36,780
Будем надеяться, что этот пример
всех утихомирит.
114
00:10:36,780 --> 00:10:39,000
Зло исходит из этих тайных собраний.
115
00:10:39,000 --> 00:10:41,640
Слишком много в этой стране
лентяев, бродяг и бездельников.
116
00:10:41,860 --> 00:10:43,980
Отсюда беспорядки и нищета!
117
00:10:44,480 --> 00:10:47,040
Надо бы всех выслать
на острова и в Канаду.
118
00:10:47,040 --> 00:10:51,100
Некоторые ограничения,
но не очень строгие.
119
00:10:51,480 --> 00:10:53,940
Месье, но их нельзя простить!
120
00:10:54,220 --> 00:10:57,000
Господин Ле Бавиль ещё раз
подтвердил свои суровые приказы.
121
00:10:57,420 --> 00:10:59,860
Мы высылаем их на каторгу.
Тайно.
122
00:11:00,040 --> 00:11:03,580
Ибо если что и пугает местных,
так это когда их близкие исчезают,
123
00:11:03,580 --> 00:11:05,180
и они не знают, куда.
124
00:11:05,380 --> 00:11:07,960
И эти похищения вполне разумны,
125
00:11:07,960 --> 00:11:12,260
если учесть, на какие крайности
способны эти буйные сходки!
126
00:11:12,380 --> 00:11:16,140
Где никому не предлагают и не разрешают
следить за тем, что происходит!
127
00:11:16,140 --> 00:11:18,800
Где каждый имеет право говорить
всё, что вздумается!
128
00:11:18,940 --> 00:11:22,340
Где понимание своей силы,
благодаря объединению и количеству,
129
00:11:22,540 --> 00:11:25,880
даёт им возможность строить собственные
планы в пику планам короля!
130
00:11:25,880 --> 00:11:27,220
В пику спокойствию государства.
131
00:11:27,220 --> 00:11:29,500
Лучше их погубить,
иначе они погубят нас.
[teatrix.ru].t12521.torrent 
Торрент: Зарегистрирован [ 2016-01-03 23:20 ] · 66BC23D96FA9B1DB443F5C8F20B01D040AE2A766

Скачать .torrent

Скачать

15 KB

Статус: проверено
Скачан: 0 раз
Размер: 1.46 GB
terms.php



Быстрый ответ

Имя:

      
Для отправки сообщений необходимо включить JavaScript
Показать сообщения:    

Текущее время: 03-Дек 16:42

Часовой пояс: UTC + 3


Вы можете начинать темы
Вы можете отвечать на сообщения
Вы не можете редактировать свои сообщения
Вы не можете удалять свои сообщения
Вы не можете голосовать в опросах
Вы не можете прикреплять файлы к сообщениям
Вы можете скачивать файлы