Новогодний концерт Венского филармонического оркестра - 2016 / Neujahrskonzert der Wiener Philarmoniker [2016, Classical, Orchestral, Concert, HDTVRip-AVC]


Статистика раздачи [Обновить пиров]
Размер:  3.33 GB   |    Зарегистрирован:  11 месяцев 2 дня   |    Скачан:  0 раз

Полного источника не было: Никогда

 
   
 
 
 

[Цитировать]

Новогодний концерт Венского филармонического оркестра - 2016 / Neujahrskonzert der Wiener Philarmoniker
Год выпуска: 2016
Страна-производитель: Австрия
Жанр: Classical, Orchestral, Concert
Продолжительность: 00:22:56 + 00:36:59 + 01:35:20
Язык: Немецкий
Перевод: Русский (Андрей Пряхин)
Режиссер трансляции: Мишель Бейер (Michele Beyer)
Дирижёр: Mariss Jansons
Исполнители: Wiener Philharmoniker, Wiener Sängerknaben, Wiener Staatsbalett
Описание: Новогодний концерт Венского филармонического оркестра (2016). Запись в Золотом зале Венского общества друзей музыки (Musikverein).Ежегодный новогодний концерт Венского филармонического оркестра по праву считается одним из крупнейших мировых музыкальных событий года. Концерт имеет многолетнюю историю: первое выступление состоялось 31 декабря в 1939 году. Это мероприятие, открывающее европейский музыкальный календарь, вызывает огромный резонанс во всем мире. К концерту в знаменитом Золотом зале Венского общества друзей музыки, куда съезжается аристократическая публика со всего мира, готовятся долго, тщательно подбирается репертуар, в котором по традиции неизменно звучат произведения знаменитых венских композиторов из семьи Штраусов – вальсы, мазурки, польки, галопы, марши.
Доп. информация:
Рип раздачи http://teatrix.ru/viewtopic.php?t=12592 , спасибо anbelk27
Добавлен звук с канала культура с комментариями Андрея Пряхина отдельной дорожкой
Качество видео: HDTVRip-AVC
Формат/Контейнер: MKV
Видео поток: H.264 1024x576 25fps 2469 Kbps
Аудио поток1: AC3 448 Kbps 5.1 48.0 KHz немецкий
Аудио поток2: MP2 192 Kbps 2 ch mono 48.0 KHz русский

Треклист

Robert Stolz Uno-Marsch
Johann Strauß (Sohn)
Schatz-Walzer. op. 418
Violetta. Polka francaise, op. 404
Vergnügungszug. Polka (schnell), op. 281
Carl Michael Ziehrer
Weaner Madl'n. Walzer op. 388
Eduard Strauß
Mit Extrapost. Galopp, op. 259
Johann Strauß (Sohn)
Ouvertüre zu Eine Nacht in Venedig (Wiener Fassung)
Eduard Strauß
Ausser Rand und Band. Polka schnell, op. 168
Josef Strauß
Sphärenklänge. Walzer, op. 235
Johann Strauß (Sohn)
Sängerslust. Polka francaise, op. 328
Josef Strauß
Auf Ferienreisen. Polka schnell, op. 133
Johann Strauß (Sohn)
Fürstin Ninetta - Entr’acte zwischen 2. und 3. Akt
Èmile Waldteufel
Espana. Walzer, op. 236
Josef Hellmesberger sen.
Ball-Szene
Johann Strauß (Vater)
Seufzer-Galopp, op. 9
Josef Strauß
Die Libelle. Polka mazur, op. 204
Johann Strauß (Sohn)
Kaiser-Walzer, op. 437
Auf der Jagd. Polka schnell, op. 373

MI

Format : Matroska
Format version : Version 2
File size : 2.11 GiB
Duration : 1h 35mn
Overall bit rate : 3 172 Kbps
Encoded date : UTC 2016-01-03 00:32:53
Writing application : mkvmerge v5.8.0 ('No Sleep / Pillow') built on Sep 2 2012 15:37:04
Writing library : libebml v1.2.3 + libmatroska v1.3.0
Video
ID : 1
Format : AVC
Format/Info : Advanced Video Codec
Format profile : High@L4.1
Format settings, CABAC : Yes
Format settings, ReFrames : 5 frames
Codec ID : V_MPEG4/ISO/AVC
Duration : 1h 35mn
Bit rate : 2 469 Kbps
Width : 1 024 pixels
Height : 576 pixels
Display aspect ratio : 16:9
Frame rate mode : Constant
Frame rate : 25.000 fps
Color space : YUV
Chroma subsampling : 4:2:0
Bit depth : 8 bits
Scan type : Progressive
Bits/(Pixel*Frame) : 0.167
Stream size : 1.64 GiB (78%)
Writing library : x264 core 125 r2208 d9d2288
Encoding settings : cabac=1 / ref=5 / deblock=1:-1:-1 / analyse=0x3:0x113 / me=umh / subme=8 / psy=1 / psy_rd=1.00:0.10 / mixed_ref=1 / me_range=16 / chroma_me=1 / trellis=1 / 8x8dct=1 / cqm=0 / deadzone=21,11 / fast_pskip=1 / chroma_qp_offset=-3 / threads=6 / lookahead_threads=1 / sliced_threads=0 / nr=0 / decimate=1 / interlaced=0 / bluray_compat=0 / constrained_intra=0 / bframes=3 / b_pyramid=2 / b_adapt=2 / b_bias=0 / direct=3 / weightb=1 / open_gop=0 / weightp=2 / keyint=250 / keyint_min=25 / scenecut=40 / intra_refresh=0 / rc_lookahead=50 / rc=crf / mbtree=1 / crf=21.0 / qcomp=0.60 / qpmin=0 / qpmax=69 / qpstep=4 / ip_ratio=1.40 / aq=1:1.00
Default : Yes
Forced : No
Audio #1
ID : 2
Format : AC-3
Format/Info : Audio Coding 3
Mode extension : CM (complete main)
Format settings, Endianness : Big
Codec ID : A_AC3
Duration : 1h 35mn
Bit rate mode : Constant
Bit rate : 448 Kbps
Channel(s) : 6 channels
Channel positions : Front: L C R, Side: L R, LFE
Sampling rate : 48.0 KHz
Bit depth : 16 bits
Compression mode : Lossy
Stream size : 306 MiB (14%)
Language : German
Default : Yes
Forced : No
Audio #2
ID : 3
Format : MPEG Audio
Format version : Version 1
Format profile : Layer 2
Codec ID : A_MPEG/L2
Codec ID/Hint : MP2
Duration : 1h 35mn
Bit rate mode : Constant
Bit rate : 192 Kbps
Channel(s) : 2 channels
Sampling rate : 48.0 KHz
Compression mode : Lossy
Stream size : 131 MiB (6%)
Language : Russian
Default : No
Forced : No

Скриншоты

[teatrix.ru].t12525.torrent 
Торрент: Зарегистрирован [ 2016-01-03 23:20 ] · 6DF8E077A3A50B1BB2354D87C27DB4BE56D39A26

Скачать .torrent

Скачать

18 KB

Статус: проверено
Скачан: 0 раз
Размер: 3.33 GB
terms.php



Быстрый ответ

Имя:

      
Для отправки сообщений необходимо включить JavaScript
Показать сообщения:    

Текущее время: 06-Дек 19:02

Часовой пояс: UTC + 3


Вы можете начинать темы
Вы можете отвечать на сообщения
Вы не можете редактировать свои сообщения
Вы не можете удалять свои сообщения
Вы не можете голосовать в опросах
Вы не можете прикреплять файлы к сообщениям
Вы можете скачивать файлы