(Classical/Solo/Piano) Schubert (Olga Scheps / Ольга Шепс) - 2012, FLAC (tracks+.cue) lossless


 

[Цитировать]

Olga Scheps
Franz Schubert-Год издания: 2012 • Длительность: 01:01:35
Жанр: Classical/Solo/Piano • Лейбл: RCA Red Seal • : 88691963182
Аудиокодек: FLAC • Битрейт: lossless • Тип рипа: tracks+.cue
Источник: what.cd • Сканы: отсутствуют
-01. Variationen über einen Walzer von Diabelli in C minor, D. 718 |1:37|
02. Walzer Nr. 2, 10, 6, D. 145, Op. 18 |3:45|
03. Ungarische Melodie in B minor, D. 817 |4:09|
04. Cotillon in E flat major, D. 976 |0:42|
05. Deutsche Tänze (Ländler) Nr. 1, 3, 4, 5, 1, 12, 17, 1, D. 366 |6:49|
06. Galopp, D. 735, Op. 49 |1:39|
07. Ecossaisen, D. 735, Op. 49 |3:14|
08. Impromptu Nr. 2 in A flat major, D. 935, Op. 142 |8:59|
09. Erste Walzer Nr. 1, 2, 14, D. 365, Op. 9 |2:33|
10. Valses nobles, D. 969, Op. 77 |11:04|
11. Impromptu Nr. 3 in G flat major, D. 899, Op. 90 |7:20|
12. Impromptu Nr. 4 in A flat major, D. 899, Op. 90 |7:51|
13. Walzer in G flat major, D. Anh. 1,14 'Kuppelwieser-Walzer' |1:54|
-Исполнитель:
Olga Scheps, piano-Об исполнителе:Ольга Шепс родилась в Москве в 1986 году в семье двух пианистов. В возрасте четырёх лет открыла для себя фортепиано. Более серьёзно начала изучать инструмент после переезда семьи в Германию в 1992 году. Ещё в раннем возрасте выработала свой собственный неповторимый стиль клавишной игры, сочетающий в себе мощную экспрессию и необычайную пианистическую технику. Среди тех, кто открыл для себя её талант был Альфред Брендель, который начал продвигать её, когда ей было пятнадцать. Основной репертуар пианистки состоит из классиков и романтиков; её интерпритации работ Моцарта, Шопена, Мендельсона, Шуберта, Листа, Рахманинова, Метнера и Грига обладают высокой степенью инидивидуальности. Также отличается большим интересом к композициям, которые редко звучат в концертном зале, будь то Les Oiseaux exotiques Оливье Мессиана, посмертные этюды Шопена, Malédiction Ференца Листа или пьесы Анатолия Лядова. Сольные концерты Ольги также популярны среди мировой аудитории, как и её выступления с ведущими оркестрами и дирижёрами - Лорина Маазеля, Мишеля Табачника, Энтони Вита и др.

Содержание индексной карты

REM GENRE Classical
REM DATE 2012
REM DISCID 930E6F0D
REM COMMENT "ExactAudioCopy v1.1"
PERFORMER "Olga Scheps"
TITLE "Schubert"
FILE "01 - Variationen ьber einen Walzer von Diabelli in C minor, D. 718.wav" WAVE
TRACK 01 AUDIO
TITLE "Variationen ьber einen Walzer von Diabelli in C minor, D. 718"
PERFORMER "Olga Scheps"
ISRC DEE861200365
INDEX 01 00:00:00
FILE "02 - Walzer Nr. 2, 10, 6, D. 145, Op. 18.wav" WAVE
TRACK 02 AUDIO
TITLE "Walzer Nr. 2, 10, 6, D. 145, Op. 18"
PERFORMER "Olga Scheps"
ISRC DEE861200368
INDEX 01 00:00:00
FILE "03 - Ungarische Melodie in B minor, D. 817.wav" WAVE
TRACK 03 AUDIO
TITLE "Ungarische Melodie in B minor, D. 817"
PERFORMER "Olga Scheps"
ISRC DEE861200367
INDEX 01 00:00:00
FILE "04 - Cotillon in E flat major, D. 976.wav" WAVE
TRACK 04 AUDIO
TITLE "Cotillon in E flat major, D. 976"
PERFORMER "Olga Scheps"
ISRC DEE861200366
INDEX 01 00:00:00
FILE "05 - Deutsche Tдnze (Lдndler) Nr. 1, 3, 4, 5, 1, 12, 17, 1, D. 366.wav" WAVE
TRACK 05 AUDIO
TITLE "Deutsche Tдnze (Lдndler) Nr. 1, 3, 4, 5, 1, 12, 17, 1, D. 366"
PERFORMER "Olga Scheps"
ISRC DEE861200369
INDEX 01 00:00:00
FILE "06 - Galopp, D. 735, Op. 49.wav" WAVE
TRACK 06 AUDIO
TITLE "Galopp, D. 735, Op. 49"
PERFORMER "Olga Scheps"
ISRC DEE861200373
INDEX 01 00:00:00
FILE "07 - Ecossaisen, D. 735, Op. 49.wav" WAVE
TRACK 07 AUDIO
TITLE "Ecossaisen, D. 735, Op. 49"
PERFORMER "Olga Scheps"
ISRC DEE861200372
INDEX 01 00:00:00
FILE "08 - Impromptu Nr. 2 in A flat major, D. 935, Op. 142.wav" WAVE
TRACK 08 AUDIO
TITLE "Impromptu Nr. 2 in A flat major, D. 935, Op. 142"
PERFORMER "Olga Scheps"
ISRC DEE861200374
INDEX 01 00:00:00
FILE "09 - Erste Walzer Nr. 1, 2, 14, D. 365, Op. 9.wav" WAVE
TRACK 09 AUDIO
TITLE "Erste Walzer Nr. 1, 2, 14, D. 365, Op. 9"
PERFORMER "Olga Scheps"
ISRC DEE861200371
INDEX 01 00:00:00
FILE "10 - Valses nobles, D. 969, Op. 77.wav" WAVE
TRACK 10 AUDIO
TITLE "Valses nobles, D. 969, Op. 77"
PERFORMER "Olga Scheps"
ISRC DEE861200370
INDEX 01 00:00:00
FILE "11 - Impromptu Nr. 3 in G flat major, D. 899, Op. 90.wav" WAVE
TRACK 11 AUDIO
TITLE "Impromptu Nr. 3 in G flat major, D. 899, Op. 90"
PERFORMER "Olga Scheps"
ISRC DEE861200375
INDEX 01 00:00:00
FILE "12 - Impromptu Nr. 4 in A flat major, D. 899, Op. 90.wav" WAVE
TRACK 12 AUDIO
TITLE "Impromptu Nr. 4 in A flat major, D. 899, Op. 90"
PERFORMER "Olga Scheps"
ISRC DEE861200376
INDEX 01 00:00:00
FILE "13 - Walzer in G flat major, D. Anh. 1,14 ''Kuppelwieser-Walzer''.wav" WAVE
TRACK 13 AUDIO
TITLE "Walzer in G flat major, D. Anh. 1,14 'Kuppelwieser-Walzer'"
PERFORMER "Olga Scheps"
ISRC DEE861200377
INDEX 01 00:00:00

Лог создания рипа

Exact Audio Copy V1.1 from 23. June 2015
EAC extraction logfile from 2. August 2015, 14:52
Olga Scheps / Schubert
Used drive : ATAPI iHAS124 F Adapter: 1 ID: 1
Read mode : Secure
Utilize accurate stream : Yes
Defeat audio cache : Yes
Make use of C2 pointers : No
Read offset correction : 6
Overread into Lead-In and Lead-Out : No
Fill up missing offset samples with silence : Yes
Delete leading and trailing silent blocks : No
Null samples used in CRC calculations : Yes
Used interface : Native Win32 interface for Win NT & 2000
Gap handling : Appended to previous track
Used output format : User Defined Encoder
Selected bitrate : 1024 kBit/s
Quality : High
Add ID3 tag : No
Command line compressor : C:\Program Files (x86)\Exact Audio Copy\Flac\flac.exe
Additional command line options : -8 -V -T "ARTIST=%artist%" -T "TITLE=%title%" -T "ALBUM=%albumtitle%" -T "DATE=%year%" -T "TRACKNUMBER=%tracknr%" -T "GENRE=%genre%" -T "PERFORMER=%albuminterpret%" -T "COMPOSER=%composer%" %haslyrics%--tag-from-file=LYRICS="%lyricsfile%"%haslyrics% -T "ALBUMARTIST=%albumartist%" -T "DISCNUMBER=%cdnumber%" -T "TOTALDISCS=%totalcds%" -T "TOTALTRACKS=%numtracks%" -T "COMMENT=%comment%" %source% -o %dest%
TOC of the extracted CD
Track | Start | Length | Start sector | End sector
---------------------------------------------------------
1 | 0:00.00 | 1:36.43 | 0 | 7242
2 | 1:36.43 | 3:45.26 | 7243 | 24143
3 | 5:21.69 | 4:09.03 | 24144 | 42821
4 | 9:30.72 | 0:42.18 | 42822 | 45989
5 | 10:13.15 | 6:48.42 | 45990 | 76631
6 | 17:01.57 | 1:39.04 | 76632 | 84060
7 | 18:40.61 | 3:13.38 | 84061 | 98573
8 | 21:54.24 | 8:59.09 | 98574 | 139007
9 | 30:53.33 | 2:33.37 | 139008 | 150519
10 | 33:26.70 | 11:03.64 | 150520 | 200308
11 | 44:30.59 | 7:19.39 | 200309 | 233272
12 | 51:50.23 | 7:50.38 | 233273 | 268560
13 | 59:40.61 | 1:54.28 | 268561 | 277138
Track 1
Filename C:\EAC\Schubert - Schubert (Scheps) - 2012 [FLAC]\01 - Variationen über einen Walzer von Diabelli in C minor, D. 718.wav
Pre-gap length 0:00:02.00
Peak level 34.5 %
Extraction speed 3.2 X
Track quality 99.8 %
Test CRC D7F1E405
Copy CRC D7F1E405
Accurately ripped (confidence 11) [51B52743] (AR v2)
Copy OK
Track 2
Filename C:\EAC\Schubert - Schubert (Scheps) - 2012 [FLAC]\02 - Walzer Nr. 2, 10, 6, D. 145, Op. 18.wav
Peak level 25.7 %
Extraction speed 5.9 X
Track quality 100.0 %
Test CRC 8A2ADE4C
Copy CRC 8A2ADE4C
Accurately ripped (confidence 11) [0166AFE4] (AR v2)
Copy OK
Track 3
Filename C:\EAC\Schubert - Schubert (Scheps) - 2012 [FLAC]\03 - Ungarische Melodie in B minor, D. 817.wav
Peak level 56.6 %
Extraction speed 6.5 X
Track quality 100.0 %
Test CRC BF90F8F2
Copy CRC BF90F8F2
Accurately ripped (confidence 11) [694B9C65] (AR v2)
Copy OK
Track 4
Filename C:\EAC\Schubert - Schubert (Scheps) - 2012 [FLAC]\04 - Cotillon in E flat major, D. 976.wav
Peak level 62.8 %
Extraction speed 4.1 X
Track quality 100.0 %
Test CRC A99EE23F
Copy CRC A99EE23F
Accurately ripped (confidence 11) [03B51C54] (AR v2)
Copy OK
Track 5
Filename C:\EAC\Schubert - Schubert (Scheps) - 2012 [FLAC]\05 - Deutsche Tänze (Ländler) Nr. 1, 3, 4, 5, 1, 12, 17, 1, D. 366.wav
Peak level 38.4 %
Extraction speed 7.6 X
Track quality 100.0 %
Test CRC CB74BF7E
Copy CRC CB74BF7E
Accurately ripped (confidence 11) [24DCEE61] (AR v2)
Copy OK
Track 6
Filename C:\EAC\Schubert - Schubert (Scheps) - 2012 [FLAC]\06 - Galopp, D. 735, Op. 49.wav
Peak level 66.3 %
Extraction speed 6.4 X
Track quality 100.0 %
Test CRC 41371EBB
Copy CRC 41371EBB
Accurately ripped (confidence 11) [26553535] (AR v2)
Copy OK
Track 7
Filename C:\EAC\Schubert - Schubert (Scheps) - 2012 [FLAC]\07 - Ecossaisen, D. 735, Op. 49.wav
Peak level 76.6 %
Extraction speed 6.0 X
Track quality 99.9 %
Test CRC 31F6AAC1
Copy CRC 31F6AAC1
Accurately ripped (confidence 11) [AEB3041E] (AR v2)
Copy OK
Track 8
Filename C:\EAC\Schubert - Schubert (Scheps) - 2012 [FLAC]\08 - Impromptu Nr. 2 in A flat major, D. 935, Op. 142.wav
Peak level 72.7 %
Extraction speed 8.1 X
Track quality 99.9 %
Test CRC 2AB56556
Copy CRC 2AB56556
Accurately ripped (confidence 11) [DBC197F0] (AR v2)
Copy OK
Track 9
Filename C:\EAC\Schubert - Schubert (Scheps) - 2012 [FLAC]\09 - Erste Walzer Nr. 1, 2, 14, D. 365, Op. 9.wav
Peak level 31.8 %
Extraction speed 8.2 X
Track quality 100.0 %
Test CRC F7A20DFF
Copy CRC F7A20DFF
Accurately ripped (confidence 11) [3997068D] (AR v2)
Copy OK
Track 10
Filename C:\EAC\Schubert - Schubert (Scheps) - 2012 [FLAC]\10 - Valses nobles, D. 969, Op. 77.wav
Peak level 87.4 %
Extraction speed 10.2 X
Track quality 100.0 %
Test CRC AD6D4E75
Copy CRC AD6D4E75
Accurately ripped (confidence 11) [168208FF] (AR v2)
Copy OK
Track 11
Filename C:\EAC\Schubert - Schubert (Scheps) - 2012 [FLAC]\11 - Impromptu Nr. 3 in G flat major, D. 899, Op. 90.wav
Peak level 43.0 %
Extraction speed 9.4 X
Track quality 99.9 %
Test CRC 6914A59C
Copy CRC 6914A59C
Accurately ripped (confidence 11) [FAF95C08] (AR v2)
Copy OK
Track 12
Filename C:\EAC\Schubert - Schubert (Scheps) - 2012 [FLAC]\12 - Impromptu Nr. 4 in A flat major, D. 899, Op. 90.wav
Peak level 78.9 %
Extraction speed 11.3 X
Track quality 100.0 %
Test CRC 65869021
Copy CRC 65869021
Accurately ripped (confidence 11) [F818BA52] (AR v2)
Copy OK
Track 13
Filename C:\EAC\Schubert - Schubert (Scheps) - 2012 [FLAC]\13 - Walzer in G flat major, D. Anh. 1,14 ''Kuppelwieser-Walzer''.wav
Peak level 19.5 %
Extraction speed 9.3 X
Track quality 100.0 %
Test CRC 929756B9
Copy CRC 929756B9
Accurately ripped (confidence 11) [117FB730] (AR v2)
Copy OK
All tracks accurately ripped
No errors occurred
End of status report
==== Log checksum 84D36B77226418C2C631A121730B78DD427FF1A44994F4F4759F603ADF4F9733 ====

Лог проверки качества

fooCDtect - foobar2000 + auCDtect, baralgin.
auCDtect: CD records authenticity detector, version 0.8.2
Copyright (c) 2004 Oleg Berngardt. All rights reserved.
Copyright (c) 2004 Alexander Djourik. All rights reserved.
mode: 0
===========================================
Track: 04. Cotillon in E flat major, D. 976
Quality: CDDA 43%
===========================================
Track: 03. Ungarische Melodie in B minor, D. 817
Quality: MPEG 80%
===========================================
Track: 05. Deutsche Tänze (Ländler) Nr. 1, 3, 4, 5, 1, 12, 17, 1, D. 366
Quality: CDDA 43%
===========================================
Track: 02. Walzer Nr. 2, 10, 6, D. 145, Op. 18
Quality: CDDA 87%
===========================================
Track: 01. Variationen über einen Walzer von Diabelli in C minor, D. 718
Quality: CDDA 58%
===========================================
Track: 06. Galopp, D. 735, Op. 49
Quality: MPEG 90%
===========================================
Track: 07. Ecossaisen, D. 735, Op. 49
Quality: MPEG 92%
===========================================
Track: 08. Impromptu Nr. 2 in A flat major, D. 935, Op. 142
Quality: MPEG 90%
===========================================
Track: 09. Erste Walzer Nr. 1, 2, 14, D. 365, Op. 9
Quality: CDDA 76%
===========================================
Track: 10. Valses nobles, D. 969, Op. 77
Quality: MPEG 93%
===========================================
Track: 12. Impromptu Nr. 4 in A flat major, D. 899, Op. 90
Quality: MPEG 89%
===========================================
Track: 11. Impromptu Nr. 3 in G flat major, D. 899, Op. 90
Quality: CDDA 43%
===========================================
Track: 13. Walzer in G flat major, D. Anh. 1,14 'Kuppelwieser-Walzer'
Quality: CDDA 99%
===========================================

Скриншот спектра частот

Track 06



Показать сообщения:    

Текущее время: 10-Дек 08:05

Часовой пояс: UTC + 3


Вы не можете начинать темы
Вы не можете отвечать на сообщения
Вы не можете редактировать свои сообщения
Вы не можете удалять свои сообщения
Вы не можете голосовать в опросах
Вы не можете прикреплять файлы к сообщениям
Вы не можете скачивать файлы