(Classical/Solo/Piano) Russian album: Tchaikovsky / Чайковский, Glinka / Глинка, Arensky / Аренский, Balakirev / Балакирев, Scriabin / Скрябин, Rachmaninoff / Рахманинов, Liadov / Лядов (Olga Scheps / Ольга Шепс) - 2010, FLAC (tracks+.cue) lossless


 

[Цитировать]

Olga Scheps
Russian album-Год издания: 2010 • Длительность: 01:20:02
Жанр: Classical/Solo/Piano • Лейбл: RCA Red Seal • : 88697780682
Аудиокодек: FLAC • Битрейт: lossless • Тип рипа: tracks+.cue
Источник: what.cd • Сканы: отсутствуют
-01. Tchaikovsky: Natha Valse, Op. 51 - No. 4 |3:35|
02. Pyotr Tchaikovsky: Valse sentimentale, Op. 51 - No. 6 |4:55|
03. Mikhail Glinka: Souvenir d'une Mazurka in B-flat major |3:51|
04. Glinka, Balakirev: The Lark |6:29|
05. Arensky: Le ruisseau dans la foret, Op. 36 - No. 15 |4:32|
06. Balakirev: Au jardin - Etude in D flat major |4:32|
07. Rubinstein: Barcarolle in A minor, Op. 93 - No. 3 |7:03|
08. Nikolai Titov: Waltz in E minor |1:09|
09. Nikolai Titov: Waltz in C major |2:02|
10. Nikolai Titov: Waltz in G major |1:04|
11. Alexander Scriabin: Waltz in A flat major, Op. 38 - No. 4 |7:00|
12. Сергей рахманинов: Moments musicaux, Op. 16 in E minor - No. 4 |3:30|
13. Rachmaninoff: Prelude in D major, Op. 23 - 4. Andante cantabile |5:30|
14. Rachmaninoff: Prelude in G minor, Op. 23 - 5. Alla marcia |4:40|
15. Rachmaninoff: Prelude in G flat major, Op. 23 - 10. Largo |3:54|
16. Anatoly Liadov: The Musical Snuff Box, Op. 32 |2:39|
Bonus CD:
01. Nikolai Medtner: Sonata Reminiscenza for Piano in A minor, Op. 38 - No 1 |13:38|
-Исполнитель:
Olga Scheps, piano-Об исполнителе:Ольга Шепс родилась в Москве в 1986 году в семье двух пианистов. В возрасте четырёх лет открыла для себя фортепиано. Более серьёзно начала изучать инструмент после переезда семьи в Германию в 1992 году. Ещё в раннем возрасте выработала свой собственный неповторимый стиль клавишной игры, сочетающий в себе мощную экспрессию и необычайную пианистическую технику. Среди тех, кто открыл для себя её талант был Альфред Брендель, который начал продвигать её, когда ей было пятнадцать. Основной репертуар пианистки состоит из классиков и романтиков; её интерпритации работ Моцарта, Шопена, Мендельсона, Шуберта, Листа, Рахманинова, Метнера и Грига обладают высокой степенью инидивидуальности. Также отличается большим интересом к композициям, которые редко звучат в концертном зале, будь то Les Oiseaux exotiques Оливье Мессиана, посмертные этюды Шопена, Malédiction Ференца Листа или пьесы Анатолия Лядова. Сольные концерты Ольги также популярны среди мировой аудитории, как и её выступления с ведущими оркестрами и дирижёрами - Лорина Маазеля, Мишеля Табачника, Энтони Вита и др.

Содержание индексной карты

REM GENRE classical
REM DATE 2010
REM DISCID DB0F9010
REM COMMENT "ExactAudioCopy v1.1"
PERFORMER "Olga Scheps"
TITLE "Russian Album"
FILE "01 - Natha Valse, Op. 51 - No. 4.wav" WAVE
TRACK 01 AUDIO
TITLE "Natha Valse, Op. 51 - No. 4"
PERFORMER "Olga Scheps"
ISRC DEE861001652
INDEX 01 00:00:00
TRACK 02 AUDIO
TITLE "Valse sentimentale, Op. 51 - No. 6"
PERFORMER "Olga Scheps"
ISRC DEE861001653
INDEX 00 03:32:57
FILE "02 - Valse sentimentale, Op. 51 - No. 6.wav" WAVE
INDEX 01 00:00:00
TRACK 03 AUDIO
TITLE "Souvenir d'une Mazurka in B-flat major"
PERFORMER "Olga Scheps"
ISRC DEE861001654
INDEX 00 04:52:04
FILE "03 - Souvenir d'une Mazurka in B-flat major.wav" WAVE
INDEX 01 00:00:00
TRACK 04 AUDIO
TITLE "The Lark"
PERFORMER "Olga Scheps"
ISRC DEE861001655
INDEX 00 03:47:08
FILE "04 - The Lark.wav" WAVE
INDEX 01 00:00:00
TRACK 05 AUDIO
TITLE "Le ruisseau dans la foret, Op. 36 - No. 15"
PERFORMER "Olga Scheps"
ISRC DEE861001656
INDEX 00 06:27:20
FILE "05 - Le ruisseau dans la foret, Op. 36 - No. 15.wav" WAVE
INDEX 01 00:00:00
TRACK 06 AUDIO
TITLE "Au jardin - Etude in D flat major"
PERFORMER "Olga Scheps"
ISRC DEE861001657
INDEX 00 04:29:32
FILE "06 - Au jardin - Etude in D flat major.wav" WAVE
INDEX 01 00:00:00
TRACK 07 AUDIO
TITLE "Barcarolle in A minor, Op. 93 - No. 3"
PERFORMER "Olga Scheps"
ISRC DEE861001658
INDEX 00 04:29:19
FILE "07 - Barcarolle in A minor, Op. 93 - No. 3.wav" WAVE
INDEX 01 00:00:00
TRACK 08 AUDIO
TITLE "Waltz in E minor"
PERFORMER "Olga Scheps"
ISRC DEE861001659
INDEX 00 07:01:50
FILE "08 - Waltz in E minor.wav" WAVE
INDEX 01 00:00:00
FILE "09 - Waltz in C major.wav" WAVE
TRACK 09 AUDIO
TITLE "Waltz in C major"
PERFORMER "Olga Scheps"
ISRC DEE861001660
INDEX 01 00:00:00
FILE "10 - Waltz in G major.wav" WAVE
TRACK 10 AUDIO
TITLE "Waltz in G major"
PERFORMER "Olga Scheps"
ISRC DEE861001661
INDEX 01 00:00:00
TRACK 11 AUDIO
TITLE "Waltz in A flat major, Op. 38 - No. 4 "
PERFORMER "Olga Scheps"
ISRC DEE861001662
INDEX 00 01:01:41
FILE "11 - Waltz in A flat major, Op. 38 - No. 4.wav" WAVE
INDEX 01 00:00:00
TRACK 12 AUDIO
TITLE "Moments musicaux, Op. 16 in E minor - No. 4"
PERFORMER "Olga Scheps"
ISRC DEE861001663
INDEX 00 06:56:72
FILE "12 - Moments musicaux, Op. 16 in E minor - No. 4.wav" WAVE
INDEX 01 00:00:00
TRACK 13 AUDIO
TITLE "Prelude in D major, Op. 23 - 4. Andante cantabile "
PERFORMER "Olga Scheps"
ISRC DEE861001664
INDEX 00 03:27:16
FILE "13 - Prelude in D major, Op. 23 - 4. Andante cantabile.wav" WAVE
INDEX 01 00:00:00
TRACK 14 AUDIO
TITLE "Prelude in G minor, Op. 23 - 5. Alla marcia "
PERFORMER "Olga Scheps"
ISRC DEE861001665
INDEX 00 05:28:25
FILE "14 - Prelude in G minor, Op. 23 - 5. Alla marcia.wav" WAVE
INDEX 01 00:00:00
TRACK 15 AUDIO
TITLE "Prelude in G flat major, Op. 23 - 10. Largo "
PERFORMER "Olga Scheps"
ISRC DEE861001666
INDEX 00 04:37:00
FILE "15 - Prelude in G flat major, Op. 23 - 10. Largo.wav" WAVE
INDEX 01 00:00:00
TRACK 16 AUDIO
TITLE "The Musical Snuff Box, Op. 32"
PERFORMER "Olga Scheps"
ISRC DEE861001667
INDEX 00 03:51:20
FILE "16 - The Musical Snuff Box, Op. 32.wav" WAVE
INDEX 01 00:00:00

Bonus CD

REM GENRE Classical
REM DATE 2010
REM DISCID 02033201
REM COMMENT "ExactAudioCopy v1.1"
PERFORMER "Olga Scheps"
TITLE "Russian Album"
FILE "01 - Sonata Reminiscenza for Piano in A minor, Op. 38 - No 1.wav" WAVE
TRACK 01 AUDIO
TITLE "Sonata Reminiscenza for Piano in A minor, Op. 38 - No 1"
PERFORMER "Olga Scheps"
ISRC DEE861001668
INDEX 01 00:00:00

Лог создания рипа

Exact Audio Copy V1.1 from 23. June 2015
EAC extraction logfile from 31. July 2015, 13:31
Olga Scheps / Russian Album
Used drive : ATAPI iHAS124 F Adapter: 1 ID: 0
Read mode : Secure
Utilize accurate stream : Yes
Defeat audio cache : Yes
Make use of C2 pointers : No
Read offset correction : 6
Overread into Lead-In and Lead-Out : No
Fill up missing offset samples with silence : Yes
Delete leading and trailing silent blocks : No
Null samples used in CRC calculations : Yes
Used interface : Native Win32 interface for Win NT & 2000
Gap handling : Appended to previous track
Used output format : User Defined Encoder
Selected bitrate : 1024 kBit/s
Quality : High
Add ID3 tag : No
Command line compressor : C:\Program Files (x86)\Exact Audio Copy\Flac\flac.exe
Additional command line options : -8 -V -T "ARTIST=%artist%" -T "TITLE=%title%" -T "ALBUM=%albumtitle%" -T "DATE=%year%" -T "TRACKNUMBER=%tracknr%" -T "GENRE=%genre%" -T "PERFORMER=%albuminterpret%" -T "COMPOSER=%composer%" %haslyrics%--tag-from-file=LYRICS="%lyricsfile%"%haslyrics% -T "ALBUMARTIST=%albumartist%" -T "DISCNUMBER=%cdnumber%" -T "TOTALDISCS=%totalcds%" -T "TOTALTRACKS=%numtracks%" -T "COMMENT=%comment%" %source% -o %dest%
TOC of the extracted CD
Track | Start | Length | Start sector | End sector
---------------------------------------------------------
1 | 0:00.00 | 3:34.51 | 0 | 16100
2 | 3:34.51 | 4:54.60 | 16101 | 38210
3 | 8:29.36 | 3:50.42 | 38211 | 55502
4 | 12:20.03 | 6:28.59 | 55503 | 84661
5 | 18:48.62 | 4:32.15 | 84662 | 105076
6 | 23:21.02 | 4:32.26 | 105077 | 125502
7 | 27:53.28 | 7:02.56 | 125503 | 157208
8 | 34:56.09 | 1:09.01 | 157209 | 162384
9 | 36:05.10 | 2:01.69 | 162385 | 171528
10 | 38:07.04 | 1:03.52 | 171529 | 176305
11 | 39:10.56 | 7:00.35 | 176306 | 207840
12 | 46:11.16 | 3:29.46 | 207841 | 223561
13 | 49:40.62 | 5:30.03 | 223562 | 248314
14 | 55:10.65 | 4:40.07 | 248315 | 269321
15 | 59:50.72 | 3:54.13 | 269322 | 286884
16 | 63:45.10 | 2:39.03 | 286885 | 298812
Track 1
Filename C:\EAC\Various Artists - Russian Album (Olga Scheps) - 2010 [FLAC]\01 - Natha Valse, Op. 51 - No. 4.wav
Pre-gap length 0:00:02.00
Peak level 75.1 %
Extraction speed 5.6 X
Track quality 100.0 %
Test CRC 740EA871
Copy CRC 740EA871
Accurately ripped (confidence 11) [76F347FB] (AR v2)
Copy OK
Track 2
Filename C:\EAC\Various Artists - Russian Album (Olga Scheps) - 2010 [FLAC]\02 - Valse sentimentale, Op. 51 - No. 6.wav
Pre-gap length 0:00:01.92
Peak level 49.6 %
Extraction speed 5.5 X
Track quality 99.9 %
Test CRC F2BB0933
Copy CRC F2BB0933
Accurately ripped (confidence 12) [338C1A2F] (AR v2)
Copy OK
Track 3
Filename C:\EAC\Various Artists - Russian Album (Olga Scheps) - 2010 [FLAC]\03 - Souvenir d'une Mazurka in B-flat major.wav
Pre-gap length 0:00:02.74
Peak level 70.1 %
Extraction speed 6.8 X
Track quality 100.0 %
Test CRC C1A670F6
Copy CRC C1A670F6
Accurately ripped (confidence 12) [A81B22A7] (AR v2)
Copy OK
Track 4
Filename C:\EAC\Various Artists - Russian Album (Olga Scheps) - 2010 [FLAC]\04 - The Lark.wav
Pre-gap length 0:00:03.45
Peak level 74.7 %
Extraction speed 6.8 X
Track quality 99.9 %
Test CRC 5F389542
Copy CRC 5F389542
Accurately ripped (confidence 12) [35A695C1] (AR v2)
Copy OK
Track 5
Filename C:\EAC\Various Artists - Russian Album (Olga Scheps) - 2010 [FLAC]\05 - Le ruisseau dans la foret, Op. 36 - No. 15.wav
Pre-gap length 0:00:01.52
Peak level 28.3 %
Extraction speed 8.0 X
Track quality 100.0 %
Test CRC 61BA906E
Copy CRC 61BA906E
Accurately ripped (confidence 12) [6E813573] (AR v2)
Copy OK
Track 6
Filename C:\EAC\Various Artists - Russian Album (Olga Scheps) - 2010 [FLAC]\06 - Au jardin - Etude in D flat major.wav
Pre-gap length 0:00:02.77
Peak level 75.4 %
Extraction speed 8.5 X
Track quality 100.0 %
Test CRC 717A6790
Copy CRC 717A6790
Accurately ripped (confidence 12) [9D937066] (AR v2)
Copy OK
Track 7
Filename C:\EAC\Various Artists - Russian Album (Olga Scheps) - 2010 [FLAC]\07 - Barcarolle in A minor, Op. 93 - No. 3.wav
Pre-gap length 0:00:03.09
Peak level 51.7 %
Extraction speed 9.3 X
Track quality 100.0 %
Test CRC 85487CB9
Copy CRC 85487CB9
Accurately ripped (confidence 12) [15FAD1E8] (AR v2)
Copy OK
Track 8
Filename C:\EAC\Various Artists - Russian Album (Olga Scheps) - 2010 [FLAC]\08 - Waltz in E minor.wav
Pre-gap length 0:00:01.08
Peak level 44.2 %
Extraction speed 4.2 X
Track quality 99.8 %
Test CRC AF1A67F5
Copy CRC AF1A67F5
Accurately ripped (confidence 12) [99317DF5] (AR v2)
Copy OK
Track 9
Filename C:\EAC\Various Artists - Russian Album (Olga Scheps) - 2010 [FLAC]\09 - Waltz in C major.wav
Peak level 43.4 %
Extraction speed 8.2 X
Track quality 100.0 %
Test CRC 984ED14C
Copy CRC 984ED14C
Accurately ripped (confidence 12) [2D486A51] (AR v2)
Copy OK
Track 10
Filename C:\EAC\Various Artists - Russian Album (Olga Scheps) - 2010 [FLAC]\10 - Waltz in G major.wav
Peak level 29.7 %
Extraction speed 6.8 X
Track quality 100.0 %
Test CRC 084436E2
Copy CRC 084436E2
Accurately ripped (confidence 12) [18831667] (AR v2)
Copy OK
Track 11
Filename C:\EAC\Various Artists - Russian Album (Olga Scheps) - 2010 [FLAC]\11 - Waltz in A flat major, Op. 38 - No. 4.wav
Pre-gap length 0:00:02.14
Peak level 88.5 %
Extraction speed 10.3 X
Track quality 100.0 %
Test CRC 8B58E51B
Copy CRC 8B58E51B
Accurately ripped (confidence 12) [16E8AC4D] (AR v2)
Copy OK
Track 12
Filename C:\EAC\Various Artists - Russian Album (Olga Scheps) - 2010 [FLAC]\12 - Moments musicaux, Op. 16 in E minor - No. 4.wav
Pre-gap length 0:00:03.50
Peak level 90.8 %
Extraction speed 9.8 X
Track quality 100.0 %
Test CRC 9A878EAF
Copy CRC 9A878EAF
Accurately ripped (confidence 12) [60381E1E] (AR v2)
Copy OK
Track 13
Filename C:\EAC\Various Artists - Russian Album (Olga Scheps) - 2010 [FLAC]\13 - Prelude in D major, Op. 23 - 4. Andante cantabile.wav
Pre-gap length 0:00:02.40
Peak level 83.7 %
Extraction speed 10.7 X
Track quality 100.0 %
Test CRC 018C66B6
Copy CRC 018C66B6
Accurately ripped (confidence 11) [9C65E9D8] (AR v2)
Copy OK
Track 14
Filename C:\EAC\Various Artists - Russian Album (Olga Scheps) - 2010 [FLAC]\14 - Prelude in G minor, Op. 23 - 5. Alla marcia.wav
Pre-gap length 0:00:01.70
Peak level 73.0 %
Extraction speed 10.9 X
Track quality 100.0 %
Test CRC 33D7DE8F
Copy CRC 33D7DE8F
Accurately ripped (confidence 11) [56084CA2] (AR v2)
Copy OK
Track 15
Filename C:\EAC\Various Artists - Russian Album (Olga Scheps) - 2010 [FLAC]\15 - Prelude in G flat major, Op. 23 - 10. Largo.wav
Pre-gap length 0:00:03.09
Peak level 38.2 %
Extraction speed 10.9 X
Track quality 100.0 %
Test CRC 3501B40D
Copy CRC 3501B40D
Accurately ripped (confidence 12) [4D928FB6] (AR v2)
Copy OK
Track 16
Filename C:\EAC\Various Artists - Russian Album (Olga Scheps) - 2010 [FLAC]\16 - The Musical Snuff Box, Op. 32.wav
Pre-gap length 0:00:02.90
Peak level 12.0 %
Extraction speed 7.9 X
Track quality 99.9 %
Test CRC C26EAC30
Copy CRC C26EAC30
Accurately ripped (confidence 12) [EC8C6773] (AR v2)
Copy OK
All tracks accurately ripped
No errors occurred
End of status report
==== Log checksum 3046FA5B632ED8D873ED43AED3F3B83FB91EE74E8E594036E7167B04577E5893 ====

Bonus CD

Exact Audio Copy V1.1 from 23. June 2015
EAC extraction logfile from 31. July 2015, 14:46
Olga Scheps / Russian Album
Used drive : ATAPI iHAS124 F Adapter: 1 ID: 0
Read mode : Secure
Utilize accurate stream : Yes
Defeat audio cache : Yes
Make use of C2 pointers : No
Read offset correction : 6
Overread into Lead-In and Lead-Out : No
Fill up missing offset samples with silence : Yes
Delete leading and trailing silent blocks : No
Null samples used in CRC calculations : Yes
Used interface : Native Win32 interface for Win NT & 2000
Gap handling : Appended to previous track
Used output format : User Defined Encoder
Selected bitrate : 1024 kBit/s
Quality : High
Add ID3 tag : No
Command line compressor : C:\Program Files (x86)\Exact Audio Copy\Flac\flac.exe
Additional command line options : -8 -V -T "ARTIST=%artist%" -T "TITLE=%title%" -T "ALBUM=%albumtitle%" -T "DATE=%year%" -T "TRACKNUMBER=%tracknr%" -T "GENRE=%genre%" -T "PERFORMER=%albuminterpret%" -T "COMPOSER=%composer%" %haslyrics%--tag-from-file=LYRICS="%lyricsfile%"%haslyrics% -T "ALBUMARTIST=%albumartist%" -T "DISCNUMBER=%cdnumber%" -T "TOTALDISCS=%totalcds%" -T "TOTALTRACKS=%numtracks%" -T "COMMENT=%comment%" %source% -o %dest%
TOC of the extracted CD
Track | Start | Length | Start sector | End sector
---------------------------------------------------------
1 | 0:00.00 | 13:38.31 | 0 | 61380
Track 1
Filename C:\EAC\Various Artists - Russian Album (Olga Scheps) - 2010 [FLAC]\Bonus CD\01 - Sonata Reminiscenza for Piano in A minor, Op. 38 - No 1.wav
Pre-gap length 0:00:02.00
Peak level 99.1 %
Extraction speed 2.3 X
Track quality 100.0 %
Test CRC 8F640BD5
Copy CRC 8F640BD5
Accurately ripped (confidence 5) [0E40715D] (AR v2)
Copy OK
All tracks accurately ripped
No errors occurred
End of status report
==== Log checksum FB1095578D3B774F7EC67FBE72C749FD4542804AC4C18892426C23BC2417592A ====

Лог проверки качества

fooCDtect - foobar2000 + auCDtect, baralgin.
auCDtect: CD records authenticity detector, version 0.8.2
Copyright (c) 2004 Oleg Berngardt. All rights reserved.
Copyright (c) 2004 Alexander Djourik. All rights reserved.
mode: 0
===========================================
Track: 02. Valse sentimentale, Op. 51 - No. 6
Quality: CDDA 100%
===========================================
Track: 01. Natha Valse, Op. 51 - No. 4
Quality: CDDA 100%
===========================================
Track: 03. Souvenir d'une Mazurka in B-flat major
Quality: CDDA 100%
===========================================
Track: 04. The Lark
Quality: CDDA 100%
===========================================
Track: 05. Le ruisseau dans la foret, Op. 36 - No. 15
Quality: CDDA 100%
===========================================
Track: 06. Au jardin - Etude in D flat major
Quality: CDDA 100%
===========================================
Track: 08. Waltz in E minor
Quality: CDDA 100%
===========================================
Track: 07. Barcarolle in A minor, Op. 93 - No. 3
Quality: CDDA 100%
===========================================
Track: 09. Waltz in C major
Quality: CDDA 100%
===========================================
Track: 12. Moments musicaux, Op. 16 in E minor - No. 4
Quality: CDDA 100%
===========================================
Track: 10. Waltz in G major
Quality: CDDA 100%
===========================================
Track: 11. Waltz in A flat major, Op. 38 - No. 4
Quality: CDDA 100%
===========================================
Track: 14. Prelude in G minor, Op. 23 - 5. Alla marcia
Quality: CDDA 100%
===========================================
Track: 15. Prelude in G flat major, Op. 23 - 10. Largo
Quality: CDDA 100%
===========================================
Track: 13. Prelude in D major, Op. 23 - 4. Andante cantabile
Quality: CDDA 100%
===========================================
Track: 16. The Musical Snuff Box, Op. 32
Quality: CDDA 100%
===========================================
Track: 01. Sonata Reminiscenza for Piano in A minor, Op. 38 - No 1
Quality: MPEG 93%
===========================================

Скриншот спектра частот

Track 01

Bonus CD



Показать сообщения:    

Текущее время: 10-Дек 00:22

Часовой пояс: UTC + 3


Вы не можете начинать темы
Вы не можете отвечать на сообщения
Вы не можете редактировать свои сообщения
Вы не можете удалять свои сообщения
Вы не можете голосовать в опросах
Вы не можете прикреплять файлы к сообщениям
Вы не можете скачивать файлы