(Classical/Solo/Piano) Chopin (Olga Scheps / Ольга Шепс) - 2010, FLAC (tracks+.cue) lossless


 

[Цитировать]

Olga Scheps
Frederic Chopin-Год издания: 2010 • Длительность: 01:03:07
Жанр: Classical/Solo/Piano • Лейбл: RCA Red Seal • : 88697577612
Аудиокодек: FLAC • Битрейт: lossless • Тип рипа: tracks+.cue
Источник: what.cd • Сканы: отсутствуют
-01-03. Trois Nouvelles Études
Nr. 1 |2:09| Nr. 2 |1:51| Nr. 3 |2:04|
04. Étude op. 10 Nr. 3 |4:29|
05. Étude op. 25 Nr. 12 |2:51|
06. Mazurka op. 63 Nr. 2 |2:03|
07. Mazurka op. 63 Nr. 3 |2:26|
08. Ballade op. 23 |10:38|
09. Nocturne op. posth. |4:57|
10. Valse op. 69 Nr. 1 |4:57|
11. Valse op. 69 Nr. 2 |3:22|
12. Nocturne op. 27 Nr. 2 |7:21|
13. Bonunstrack: Fantasie op. 49 |13:59|
-Исполнители:
Olga Scheps, piano-Об исполнителе:Ольга Шепс родилась в Москве в 1986 году в семье двух пианистов. В возрасте четырёх лет открыла для себя фортепиано. Более серьёзно начала изучать инструмент после переезда семьи в Германию в 1992 году. Ещё в раннем возрасте выработала свой собственный неповторимый стиль клавишной игры, сочетающий в себе мощную экспрессию и необычайную пианистическую технику. Среди тех, кто открыл для себя её талант был Альфред Брендель, который начал продвигать её, когда ей было пятнадцать. Основной репертуар пианистки состоит из классиков и романтиков; её интерпритации работ Моцарта, Шопена, Мендельсона, Шуберта, Листа, Рахманинова, Метнера и Грига обладают высокой степенью инидивидуальности. Также отличается большим интересом к композициям, которые редко звучат в концертном зале, будь то Les Oiseaux exotiques Оливье Мессиана, посмертные этюды Шопена, Malédiction Ференца Листа или пьесы Анатолия Лядова. Сольные концерты Ольги также популярны среди мировой аудитории, как и её выступления с ведущими оркестрами и дирижёрами - Лорина Маазеля, Мишеля Табачника, Энтони Вита и др.

Содержание индексной карты

REM GENRE Classical
REM DATE 2009
REM DISCID 960ECB0D
REM COMMENT "ExactAudioCopy v1.1"
PERFORMER "Olga Scheps"
TITLE "Chopin"
FILE "01 - Trois Nouvelles Йtudes Nr. 1.wav" WAVE
TRACK 01 AUDIO
TITLE "Trois Nouvelles Йtudes Nr. 1"
PERFORMER "Olga Scheps"
ISRC DEE860901319
INDEX 01 00:00:00
TRACK 02 AUDIO
TITLE "Trois Nouvelles Йtudes Nr. 2"
PERFORMER "Olga Scheps"
ISRC DEE860901320
INDEX 00 02:06:41
FILE "02 - Trois Nouvelles Йtudes Nr. 2.wav" WAVE
INDEX 01 00:00:00
TRACK 03 AUDIO
TITLE "Trois Nouvelles Йtudes Nr. 3"
PERFORMER "Olga Scheps"
ISRC DEE860901321
INDEX 00 01:48:74
FILE "03 - Trois Nouvelles Йtudes Nr. 3.wav" WAVE
INDEX 01 00:00:00
TRACK 04 AUDIO
TITLE "Йtude op. 10 Nr. 3"
PERFORMER "Olga Scheps"
ISRC DEE860901322
INDEX 00 02:00:10
FILE "04 - Йtude op. 10 Nr. 3.wav" WAVE
INDEX 01 00:00:00
TRACK 05 AUDIO
TITLE "Йtude op. 25 Nr. 12"
PERFORMER "Olga Scheps"
ISRC DEE860901323
INDEX 00 04:24:69
FILE "05 - Йtude op. 25 Nr. 12.wav" WAVE
INDEX 01 00:00:00
TRACK 06 AUDIO
TITLE "Mazurka op. 63 Nr. 2"
PERFORMER "Olga Scheps"
ISRC DEE860901324
INDEX 00 02:47:15
FILE "06 - Mazurka op. 63 Nr. 2.wav" WAVE
INDEX 01 00:00:00
TRACK 07 AUDIO
TITLE "Mazurka op. 63 Nr. 3"
PERFORMER "Olga Scheps"
ISRC DEE860901325
INDEX 00 02:01:24
FILE "07 - Mazurka op. 63 Nr. 3.wav" WAVE
INDEX 01 00:00:00
TRACK 08 AUDIO
TITLE "Ballade op. 23"
PERFORMER "Olga Scheps"
ISRC DEE860901326
INDEX 00 02:21:62
FILE "08 - Ballade op. 23.wav" WAVE
INDEX 01 00:00:00
TRACK 09 AUDIO
TITLE "Nocturne op. posth."
PERFORMER "Olga Scheps"
ISRC DEE860901327
INDEX 00 10:33:48
FILE "09 - Nocturne op. posth..wav" WAVE
INDEX 01 00:00:00
TRACK 10 AUDIO
TITLE "Valse op. 69 Nr. 1"
PERFORMER "Olga Scheps"
ISRC DEE860901328
INDEX 00 04:53:12
FILE "10 - Valse op. 69 Nr. 1.wav" WAVE
INDEX 01 00:00:00
TRACK 11 AUDIO
TITLE "Valse op. 69 Nr. 2"
PERFORMER "Olga Scheps"
ISRC DEE860901329
INDEX 00 04:55:17
FILE "11 - Valse op. 69 Nr. 2.wav" WAVE
INDEX 01 00:00:00
TRACK 12 AUDIO
TITLE "Nocturne op. 27 Nr. 2"
PERFORMER "Olga Scheps"
ISRC DEE860901330
INDEX 00 03:18:34
FILE "12 - Nocturne op. 27 Nr. 2.wav" WAVE
INDEX 01 00:00:00
TRACK 13 AUDIO
TITLE "Bonunstrack: Fantasie op. 49"
PERFORMER "Olga Scheps"
ISRC DEE860901331
INDEX 00 07:10:73
FILE "13 - Bonunstrack- Fantasie op. 49.wav" WAVE
INDEX 01 00:00:00

Лог создания рипа

Exact Audio Copy V1.1 from 23. June 2015
EAC extraction logfile from 31. July 2015, 19:13
Olga Scheps / Chopin
Used drive : ATAPI iHAS124 F Adapter: 1 ID: 0
Read mode : Secure
Utilize accurate stream : Yes
Defeat audio cache : Yes
Make use of C2 pointers : No
Read offset correction : 6
Overread into Lead-In and Lead-Out : No
Fill up missing offset samples with silence : Yes
Delete leading and trailing silent blocks : No
Null samples used in CRC calculations : Yes
Used interface : Native Win32 interface for Win NT & 2000
Gap handling : Appended to previous track
Used output format : User Defined Encoder
Selected bitrate : 1024 kBit/s
Quality : High
Add ID3 tag : No
Command line compressor : C:\Program Files (x86)\Exact Audio Copy\Flac\flac.exe
Additional command line options : -8 -V -T "ARTIST=%artist%" -T "TITLE=%title%" -T "ALBUM=%albumtitle%" -T "DATE=%year%" -T "TRACKNUMBER=%tracknr%" -T "GENRE=%genre%" -T "PERFORMER=%albuminterpret%" -T "COMPOSER=%composer%" %haslyrics%--tag-from-file=LYRICS="%lyricsfile%"%haslyrics% -T "ALBUMARTIST=%albumartist%" -T "DISCNUMBER=%cdnumber%" -T "TOTALDISCS=%totalcds%" -T "TOTALTRACKS=%numtracks%" -T "COMMENT=%comment%" %source% -o %dest%
TOC of the extracted CD
Track | Start | Length | Start sector | End sector
---------------------------------------------------------
1 | 0:00.00 | 2:08.41 | 0 | 9640
2 | 2:08.41 | 1:50.74 | 9641 | 17964
3 | 3:59.40 | 2:04.10 | 17965 | 27274
4 | 6:03.50 | 4:28.69 | 27275 | 47443
5 | 10:32.44 | 2:51.15 | 47444 | 60283
6 | 13:23.59 | 2:03.24 | 60284 | 69532
7 | 15:27.08 | 2:25.62 | 69533 | 80469
8 | 17:52.70 | 10:37.48 | 80470 | 128292
9 | 28:30.43 | 4:57.12 | 128293 | 150579
10 | 33:27.55 | 4:57.17 | 150580 | 172871
11 | 38:24.72 | 3:22.34 | 172872 | 188055
12 | 41:47.31 | 7:20.73 | 188056 | 221128
13 | 49:08.29 | 13:58.47 | 221129 | 284025
Track 1
Filename C:\EAC\Chopin - Chopin (Olga Scheps) - 2009 [FLAC]\01 - Trois Nouvelles Études Nr. 1.wav
Pre-gap length 0:00:02.00
Peak level 40.5 %
Extraction speed 5.0 X
Track quality 100.0 %
Test CRC D76EE306
Copy CRC D76EE306
Accurately ripped (confidence 28) [E9AF4255] (AR v2)
Copy OK
Track 2
Filename C:\EAC\Chopin - Chopin (Olga Scheps) - 2009 [FLAC]\02 - Trois Nouvelles Études Nr. 2.wav
Pre-gap length 0:00:02.00
Peak level 39.1 %
Extraction speed 5.1 X
Track quality 100.0 %
Test CRC 27607647
Copy CRC 27607647
Accurately ripped (confidence 28) [8AE02820] (AR v2)
Copy OK
Track 3
Filename C:\EAC\Chopin - Chopin (Olga Scheps) - 2009 [FLAC]\03 - Trois Nouvelles Études Nr. 3.wav
Pre-gap length 0:00:02.00
Peak level 39.2 %
Extraction speed 4.1 X
Track quality 99.9 %
Test CRC 2F963A46
Copy CRC 2F963A46
Accurately ripped (confidence 28) [DE6D9F78] (AR v2)
Copy OK
Track 4
Filename C:\EAC\Chopin - Chopin (Olga Scheps) - 2009 [FLAC]\04 - Étude op. 10 Nr. 3.wav
Pre-gap length 0:00:04.00
Peak level 63.7 %
Extraction speed 5.5 X
Track quality 99.9 %
Test CRC 2F0954B7
Copy CRC 2F0954B7
Accurately ripped (confidence 28) [D9033ED5] (AR v2)
Copy OK
Track 5
Filename C:\EAC\Chopin - Chopin (Olga Scheps) - 2009 [FLAC]\05 - Étude op. 25 Nr. 12.wav
Pre-gap length 0:00:04.00
Peak level 55.9 %
Extraction speed 6.6 X
Track quality 100.0 %
Test CRC 3FE6C440
Copy CRC 3FE6C440
Accurately ripped (confidence 28) [4AD86A4B] (AR v2)
Copy OK
Track 6
Filename C:\EAC\Chopin - Chopin (Olga Scheps) - 2009 [FLAC]\06 - Mazurka op. 63 Nr. 2.wav
Pre-gap length 0:00:04.00
Peak level 24.5 %
Extraction speed 6.4 X
Track quality 100.0 %
Test CRC 7E935E7E
Copy CRC 7E935E7E
Accurately ripped (confidence 28) [41480F51] (AR v2)
Copy OK
Track 7
Filename C:\EAC\Chopin - Chopin (Olga Scheps) - 2009 [FLAC]\07 - Mazurka op. 63 Nr. 3.wav
Pre-gap length 0:00:02.00
Peak level 34.2 %
Extraction speed 6.9 X
Track quality 100.0 %
Test CRC 4A6A5181
Copy CRC 4A6A5181
Accurately ripped (confidence 28) [EAF44693] (AR v2)
Copy OK
Track 8
Filename C:\EAC\Chopin - Chopin (Olga Scheps) - 2009 [FLAC]\08 - Ballade op. 23.wav
Pre-gap length 0:00:04.00
Peak level 94.9 %
Extraction speed 8.8 X
Track quality 100.0 %
Test CRC 05822A7C
Copy CRC 05822A7C
Accurately ripped (confidence 28) [0B41090A] (AR v2)
Copy OK
Track 9
Filename C:\EAC\Chopin - Chopin (Olga Scheps) - 2009 [FLAC]\09 - Nocturne op. posth..wav
Pre-gap length 0:00:04.00
Peak level 26.9 %
Extraction speed 7.7 X
Track quality 99.9 %
Test CRC 7E4FD03F
Copy CRC 7E4FD03F
Accurately ripped (confidence 28) [4A937684] (AR v2)
Copy OK
Track 10
Filename C:\EAC\Chopin - Chopin (Olga Scheps) - 2009 [FLAC]\10 - Valse op. 69 Nr. 1.wav
Pre-gap length 0:00:04.00
Peak level 37.0 %
Extraction speed 9.4 X
Track quality 100.0 %
Test CRC 180526FB
Copy CRC 180526FB
Accurately ripped (confidence 28) [288983FD] (AR v2)
Copy OK
Track 11
Filename C:\EAC\Chopin - Chopin (Olga Scheps) - 2009 [FLAC]\11 - Valse op. 69 Nr. 2.wav
Pre-gap length 0:00:02.00
Peak level 36.0 %
Extraction speed 9.1 X
Track quality 100.0 %
Test CRC CAE44B7C
Copy CRC CAE44B7C
Accurately ripped (confidence 28) [10E20750] (AR v2)
Copy OK
Track 12
Filename C:\EAC\Chopin - Chopin (Olga Scheps) - 2009 [FLAC]\12 - Nocturne op. 27 Nr. 2.wav
Pre-gap length 0:00:04.00
Peak level 45.4 %
Extraction speed 10.4 X
Track quality 100.0 %
Test CRC C33E3C18
Copy CRC C33E3C18
Accurately ripped (confidence 28) [446C0C4F] (AR v2)
Copy OK
Track 13
Filename C:\EAC\Chopin - Chopin (Olga Scheps) - 2009 [FLAC]\13 - Bonunstrack- Fantasie op. 49.wav
Pre-gap length 0:00:10.00
Peak level 60.8 %
Extraction speed 11.0 X
Track quality 99.9 %
Test CRC AA6B3E9D
Copy CRC AA6B3E9D
Accurately ripped (confidence 28) [B6B331B8] (AR v2)
Copy OK
All tracks accurately ripped
No errors occurred
End of status report
==== Log checksum B81C30066441B7C748BF02DF22824269E6B7520137F7C64E3460F18B98771AAF ====



Показать сообщения:    

Текущее время: 04-Дек 21:16

Часовой пояс: UTC + 3


Вы не можете начинать темы
Вы не можете отвечать на сообщения
Вы не можете редактировать свои сообщения
Вы не можете удалять свои сообщения
Вы не можете голосовать в опросах
Вы не можете прикреплять файлы к сообщениям
Вы не можете скачивать файлы