(Classical/Concerto/Piano) Chopin: Piano Concertos (Olga Scheps / Ольга Шепс) - 2014, FLAC (tracks+.cue) lossless


Статистика раздачи [Обновить пиров]
Размер:  274 MB   |    Зарегистрирован:  11 месяцев   |    Скачан:  0 раз

Полного источника не было: Никогда

 
   
 
 
 

[Цитировать]

Olga Scheps
Frederic Chopin: Piano Concertos-Год издания: 2014 • Длительность: 01:18:00
Жанр: Classical/Concerto/Piano • Лейбл: RCA Red Seal • : 88843011702
Аудиокодек: FLAC • Битрейт: lossless • Тип рипа: tracks+.cue
Источник: what.cd • Сканы: отсутствуют
-01-03. Piano Concerto No. 1 in E minor, Op. 11
I. Allegro maestoso |21:40| II. Romanze |11:16| III. Rondo |10:47|
04-07. Piano Concerto No. 2 in F minor, Op. 21
I. Maestoso |15:11| II. Larghetto |10:16| III. Allegro vivace |8:50|
-Исполнители:
Olga Scheps, piano
Stuttgarter Kammerorchester
Matthias Foremny, conductor-Об исполнителе:Ольга Шепс родилась в Москве в 1986 году в семье двух пианистов. В возрасте четырёх лет открыла для себя фортепиано. Более серьёзно начала изучать инструмент после переезда семьи в Германию в 1992 году. Ещё в раннем возрасте выработала свой собственный неповторимый стиль клавишной игры, сочетающий в себе мощную экспрессию и необычайную пианистическую технику. Среди тех, кто открыл для себя её талант был Альфред Брендель, который начал продвигать её, когда ей было пятнадцать. Основной репертуар пианистки состоит из классиков и романтиков; её интерпритации работ Моцарта, Шопена, Мендельсона, Шуберта, Листа, Рахманинова, Метнера и Грига обладают высокой степенью инидивидуальности. Также отличается большим интересом к композициям, которые редко звучат в концертном зале, будь то Les Oiseaux exotiques Оливье Мессиана, посмертные этюды Шопена, Malédiction Ференца Листа или пьесы Анатолия Лядова. Сольные концерты Ольги также популярны среди мировой аудитории, как и её выступления с ведущими оркестрами и дирижёрами - Лорина Маазеля, Мишеля Табачника, Энтони Вита и др.

Индексная карта

REM GENRE Classical
REM DATE 2014
REM DISCID 4D124806
REM COMMENT "ExactAudioCopy v1.1"
CATALOG 0888430117020
PERFORMER "Olga Scheps, Stuttgarter Kammerorchester, Matthias Foremny"
TITLE "The Chopin Piano Concertos"
FILE "01 - Piano Concerto No. 1 in E minor, Op. 11 - I. Allegro maestoso.wav" WAVE
TRACK 01 AUDIO
TITLE "Piano Concerto No. 1 in E minor, Op. 11 - I. Allegro maestoso"
PERFORMER "Olga Scheps, Stuttgarter Kammerorchester, Matthias Foremny"
ISRC DEE861300949
FLAGS DCP
INDEX 01 00:00:00
FILE "02 - Piano Concerto No. 1 in E minor, Op. 11 - II. Romanze.wav" WAVE
TRACK 02 AUDIO
TITLE "Piano Concerto No. 1 in E minor, Op. 11 - II. Romanze"
PERFORMER "Olga Scheps, Stuttgarter Kammerorchester, Matthias Foremny"
ISRC DEE861300950
FLAGS DCP
INDEX 01 00:00:00
FILE "03 - Piano Concerto No. 1 in E minor, Op. 11 - III. Rondo.wav" WAVE
TRACK 03 AUDIO
TITLE "Piano Concerto No. 1 in E minor, Op. 11 - III. Rondo"
PERFORMER "Olga Scheps, Stuttgarter Kammerorchester, Matthias Foremny"
ISRC DEE861300951
FLAGS DCP
INDEX 01 00:00:00
TRACK 04 AUDIO
TITLE "Piano Concerto No. 2 in F minor, Op. 21 - I. Maestoso"
PERFORMER "Olga Scheps, Stuttgarter Kammerorchester, Matthias Foremny"
ISRC DEE861300953
FLAGS DCP
INDEX 00 10:37:55
FILE "04 - Piano Concerto No. 2 in F minor, Op. 21 - I. Maestoso.wav" WAVE
INDEX 01 00:00:00
FILE "05 - Piano Concerto No. 2 in F minor, Op. 21 - II. Larghetto.wav" WAVE
TRACK 05 AUDIO
TITLE "Piano Concerto No. 2 in F minor, Op. 21 - II. Larghetto"
PERFORMER "Olga Scheps, Stuttgarter Kammerorchester, Matthias Foremny"
ISRC DEE861300954
FLAGS DCP
INDEX 01 00:00:00
FILE "06 - Piano Concerto No. 2 in F minor, Op. 21 - III. Allegro vivace.wav" WAVE
TRACK 06 AUDIO
TITLE "Piano Concerto No. 2 in F minor, Op. 21 - III. Allegro vivace"
PERFORMER "Olga Scheps, Stuttgarter Kammerorchester, Matthias Foremny"
ISRC DEE861300955
FLAGS DCP
INDEX 01 00:00:00

Лог создания рипа

Exact Audio Copy V1.1 from 23. June 2015
EAC extraction logfile from 22. July 2015, 18:10
Olga Scheps, Stuttgarter Kammerorchester, Matthias Foremny / The Chopin Piano Concertos
Used drive : ATAPI iHAS124 F Adapter: 1 ID: 1
Read mode : Secure
Utilize accurate stream : Yes
Defeat audio cache : Yes
Make use of C2 pointers : No
Read offset correction : 6
Overread into Lead-In and Lead-Out : No
Fill up missing offset samples with silence : Yes
Delete leading and trailing silent blocks : No
Null samples used in CRC calculations : Yes
Used interface : Native Win32 interface for Win NT & 2000
Gap handling : Appended to previous track
Used output format : User Defined Encoder
Selected bitrate : 1024 kBit/s
Quality : High
Add ID3 tag : No
Command line compressor : C:\Program Files (x86)\Exact Audio Copy\Flac\flac.exe
Additional command line options : -8 -V -T "ARTIST=%artist%" -T "TITLE=%title%" -T "ALBUM=%albumtitle%" -T "DATE=%year%" -T "TRACKNUMBER=%tracknr%" -T "GENRE=%genre%" -T "PERFORMER=%albuminterpret%" -T "COMPOSER=%composer%" %haslyrics%--tag-from-file=LYRICS="%lyricsfile%"%haslyrics% -T "ALBUMARTIST=%albumartist%" -T "DISCNUMBER=%cdnumber%" -T "TOTALDISCS=%totalcds%" -T "TOTALTRACKS=%numtracks%" -T "COMMENT=%comment%" %source% -o %dest%
TOC of the extracted CD
Track | Start | Length | Start sector | End sector
---------------------------------------------------------
1 | 0:00.00 | 21:40.37 | 0 | 97536
2 | 21:40.37 | 11:15.56 | 97537 | 148217
3 | 32:56.18 | 10:47.34 | 148218 | 196776
4 | 43:43.52 | 15:10.70 | 196777 | 265096
5 | 58:54.47 | 10:15.60 | 265097 | 311281
6 | 69:10.32 | 8:49.53 | 311282 | 351009
Track 1
Filename C:\EAC\Frédéric Chopin - The Chopin Piano Concertos (Scheps, SKO, Foremny) - 2014 [FLAC]\01 - Piano Concerto No. 1 in E minor, Op. 11 - I. Allegro maestoso.wav
Pre-gap length 0:00:02.00
Peak level 92.0 %
Extraction speed 7.6 X
Track quality 100.0 %
Test CRC FC69254F
Copy CRC FC69254F
Accurately ripped (confidence 11) [F6B489E7] (AR v2)
Copy OK
Track 2
Filename C:\EAC\Frédéric Chopin - The Chopin Piano Concertos (Scheps, SKO, Foremny) - 2014 [FLAC]\02 - Piano Concerto No. 1 in E minor, Op. 11 - II. Romanze.wav
Peak level 63.4 %
Extraction speed 9.2 X
Track quality 100.0 %
Test CRC 162976EC
Copy CRC 162976EC
Accurately ripped (confidence 11) [A402FAEA] (AR v2)
Copy OK
Track 3
Filename C:\EAC\Frédéric Chopin - The Chopin Piano Concertos (Scheps, SKO, Foremny) - 2014 [FLAC]\03 - Piano Concerto No. 1 in E minor, Op. 11 - III. Rondo.wav
Peak level 80.5 %
Extraction speed 10.2 X
Track quality 100.0 %
Test CRC 52DD1407
Copy CRC 52DD1407
Accurately ripped (confidence 11) [BB640D8E] (AR v2)
Copy OK
Track 4
Filename C:\EAC\Frédéric Chopin - The Chopin Piano Concertos (Scheps, SKO, Foremny) - 2014 [FLAC]\04 - Piano Concerto No. 2 in F minor, Op. 21 - I. Maestoso.wav
Pre-gap length 0:00:09.72
Peak level 90.4 %
Extraction speed 11.3 X
Track quality 100.0 %
Test CRC 88DBE1DB
Copy CRC 88DBE1DB
Accurately ripped (confidence 11) [9A11206F] (AR v2)
Copy OK
Track 5
Filename C:\EAC\Frédéric Chopin - The Chopin Piano Concertos (Scheps, SKO, Foremny) - 2014 [FLAC]\05 - Piano Concerto No. 2 in F minor, Op. 21 - II. Larghetto.wav
Peak level 83.7 %
Extraction speed 12.1 X
Track quality 100.0 %
Test CRC 78E97218
Copy CRC 78E97218
Accurately ripped (confidence 11) [864CF3FB] (AR v2)
Copy OK
Track 6
Filename C:\EAC\Frédéric Chopin - The Chopin Piano Concertos (Scheps, SKO, Foremny) - 2014 [FLAC]\06 - Piano Concerto No. 2 in F minor, Op. 21 - III. Allegro vivace.wav
Peak level 79.4 %
Extraction speed 12.4 X
Track quality 100.0 %
Test CRC 0E0948E5
Copy CRC 0E0948E5
Accurately ripped (confidence 11) [750CD384] (AR v2)
Copy OK
All tracks accurately ripped
No errors occurred
End of status report
==== Log checksum B511B5D6830A7BE6D7FF50D38D8B3FD8F0D84CBB2BB8C79CD92C90A8C8CB1EC1 ====

Лог проверки качества

fooCDtect - foobar2000 + auCDtect, baralgin.
auCDtect: CD records authenticity detector, version 0.8.2
Copyright (c) 2004 Oleg Berngardt. All rights reserved.
Copyright (c) 2004 Alexander Djourik. All rights reserved.
mode: 0
===========================================
Track: 04. Piano Concerto No. 2 in F minor, Op. 21 - I. Maestoso
Quality: CDDA 100%
===========================================
Track: 01. Piano Concerto No. 1 in E minor, Op. 11 - I. Allegro maestoso
Quality: CDDA 100%
===========================================
Track: 03. Piano Concerto No. 1 in E minor, Op. 11 - III. Rondo
Quality: CDDA 100%
===========================================
Track: 05. Piano Concerto No. 2 in F minor, Op. 21 - II. Larghetto
Quality: CDDA 100%
===========================================
Track: 02. Piano Concerto No. 1 in E minor, Op. 11 - II. Romanze
Quality: CDDA 100%
===========================================
Track: 06. Piano Concerto No. 2 in F minor, Op. 21 - III. Allegro vivace
Quality: CDDA 99%
===========================================

Скриншот спектра частот

Track 01
[teatrix.ru].t12532.torrent 
Торрент: Зарегистрирован [ 2016-01-03 23:20 ] · D1CCCF86C3F59E5078C0DB7666B8285832389D37

Скачать .torrent

Скачать

12 KB

Статус: проверено
Скачан: 0 раз
Размер: 274 MB
terms.php



Быстрый ответ

Имя:

      
Для отправки сообщений необходимо включить JavaScript
Показать сообщения:    

Текущее время: 04-Дек 00:53

Часовой пояс: UTC + 3


Вы можете начинать темы
Вы можете отвечать на сообщения
Вы не можете редактировать свои сообщения
Вы не можете удалять свои сообщения
Вы не можете голосовать в опросах
Вы не можете прикреплять файлы к сообщениям
Вы можете скачивать файлы