(Classical, 20th century) American Concertos of the Jazz Age: Johnson, Reser, Gershwin, Suesse - Hammond, Vappie, Roitman, Mintun, Gurt; Hot Springs Music Festival Symphony Orchestra, Richard Rosenberg - 2011, FLAC (image+.cue) lossless


Статистика раздачи [Обновить пиров]
Размер:  272 MB   |    Зарегистрирован:  11 месяцев 2 дня   |    Скачан:  0 раз

Полного источника не было: Никогда

 
   
 
 
 

[Цитировать]

American Concertos of the Jazz Age: Johnson, Reser, Gershwin, Suesse - Hammond, Vappie, Roitman, Mintun, Gurt; Hot Springs Music Festival Symphony Orchestra, Richard Rosenberg
Жанр: Classical, 20th century
Год издания диска: 2011
Издатель (лейбл): Naxos
Номер по каталогу: 8.559647
Дата записи: 2005-2009
Аудиокодек: FLAC
Тип рипа: image+.cue
Битрейт аудио: lossless
Продолжительность: 70:43
Источник: собственный рип
Наличие сканов в содержимом раздачи: да
Треклист:
James Price Johnson (1894-1955)
[1] Yamekraw, A Negro Rhapsody (1927) 1
Harry Reser (1896-1965)
[2]-[4] Suite for Banjo and Orchestra (1922-30) 2
George Gershwin (1898-1937)
[5] A Rhapsody in Blue (1924) 3
Dana Suesse (1909-1987)
[6] Jazz Nocturne (1931) 4
[7]-[9] Concerto in Three Rhythms (1932) 5
Исполнители:
Gary Hammond piano 1
Don Vappie banjo 2, 3
Tatiana Roitman piano 3
Peter Mintun piano 4
Michael Gurt piano 5
Créole Serenaders 3
Hot Springs Music Festival Symphony Orchestra
Richard Rosenberg

Лог создания рипа

Exact Audio Copy V1.1 from 23. June 2015
EAC extraction logfile from 1. January 2016, 18:08
Hot Springs Music Festival SO, Richard Rosenberg / Jazz Nocturne: American Concertos of the Jazz Age
Used drive : HL-DT-STDVDRAM GU70N Adapter: 1 ID: 0
Read mode : SecureUtilize accurate stream : YesDefeat audio cache : YesMake use of C2 pointers : No
Read offset correction : 48Overread into Lead-In and Lead-Out : NoFill up missing offset samples with silence : YesDelete leading and trailing silent blocks : NoNull samples used in CRC calculations : YesUsed interface : Native Win32 interface for Win NT & 2000
Used output format : User Defined EncoderSelected bitrate : 128 kBit/sQuality : HighAdd ID3 tag : NoCommand line compressor : C:\Program Files (x86)\Exact Audio Copy\Flac\flac.exeAdditional command line options : -V -8 -T "Date=%year%" -T "Genre=%genre%" %source%
TOC of the extracted CD
Track | Start | Length | Start sector | End sector --------------------------------------------------------- 1 | 0:00.00 | 15:32.63 | 0 | 69962 2 | 15:32.63 | 2:53.66 | 69963 | 83003 3 | 18:26.54 | 3:45.08 | 83004 | 99886 4 | 22:11.62 | 4:29.30 | 99887 | 120091 5 | 26:41.17 | 16:49.01 | 120092 | 195767 6 | 43:30.18 | 4:18.13 | 195768 | 215130 7 | 47:48.31 | 9:27.68 | 215131 | 257723 8 | 57:16.24 | 8:47.04 | 257724 | 297252 9 | 66:03.28 | 4:37.47 | 297253 | 318074
Range status and errors
Selected range
Filename C:\temp\Naxos_8.559647 - American Concertos of the Jazz Age\Jazz Nocturne.wav
Peak level 100.0 % Extraction speed 2.1 X Range quality 99.9 % Test CRC 5F11EA56 Copy CRC 5F11EA56 Copy OK
No errors occurred
AccurateRip summary
Track 1 accurately ripped (confidence 3) [3B37D786] (AR v2)Track 2 accurately ripped (confidence 3) [84E2BEF9] (AR v2)Track 3 accurately ripped (confidence 3) [9FA99750] (AR v2)Track 4 accurately ripped (confidence 3) [DB98A8F8] (AR v2)Track 5 accurately ripped (confidence 3) [B0402934] (AR v2)Track 6 accurately ripped (confidence 3) [326267B6] (AR v2)Track 7 accurately ripped (confidence 3) [6982275D] (AR v2)Track 8 accurately ripped (confidence 3) [98C569E4] (AR v2)Track 9 accurately ripped (confidence 3) [7FE15E39] (AR v2)
All tracks accurately ripped
End of status report
==== Log checksum 3F6095814B2D007BA6F05F87CC22D0D440A463BF89EDE27CD5C8A8FBA346CA99 ====
[teatrix.ru].t12533.torrent 
Торрент: Зарегистрирован [ 2016-01-03 23:20 ] · FAE5EE8359EC5413A03984CE248EDCB968CD2617

Скачать .torrent

Скачать

22 KB

Статус: проверено
Скачан: 0 раз
Размер: 272 MB
terms.php



Быстрый ответ

Имя:

      
Для отправки сообщений необходимо включить JavaScript
Показать сообщения:    

Текущее время: 06-Дек 13:12

Часовой пояс: UTC + 3


Вы можете начинать темы
Вы можете отвечать на сообщения
Вы не можете редактировать свои сообщения
Вы не можете удалять свои сообщения
Вы не можете голосовать в опросах
Вы не можете прикреплять файлы к сообщениям
Вы можете скачивать файлы