(Classical) Wolfgang Amadeus Mozart — Piano Quartets № 1 & 2 (K 478 & 493) (Mozart Piano Quartet) — 2009, APE (image+.cue) lossless


 

[Цитировать]

Piano Quartets № 1 & 2 (K 478 & 493)-
Жанр: Classical
Страна-производитель диска: Германия
Год издания диска: September, 27, 2009
Год записи фонограммы: December, 15-17, 2008
Издатель (лейбл): MDG
Номер по каталогу: MDG 943 1579-6
Композитор: Wolfgang Amadeus Mozart
Исполнительский коллектив: Mozart Piano Quartet
Аудио кодек: ape
Тип рипа: image+.cue
Битрейт аудио: lossless
Продолжительность: 01h06'48"
Источник: web
Наличие сканов в содержимом раздачи: да-Треклист:
(01-03) Piano Quartet № 1 g-moll K 478 [29'18"]
(04-06) Piano Quartet № 2 Es-Dur K 493 [37'31"]-Mozart Piano Quartet:
Violin – Mark Gothoni, Viola – Hartmut Rohde, Violoncello – Peter Hörr, Piano – Paul Rivinius-

CUE

REM GENRE "Classical"
REM DATE "2009"
PERFORMER "Mozart"
TITLE "Piano Quartets"
FILE "Piano Quartets.ape" WAVE
  TRACK 01 AUDIO
    TITLE "Piano Quartet № 1 g-moll K 478 – I. Allegro"
    PERFORMER "Mozart"
    FLAGS DCP
    INDEX 01 00:00:00
  TRACK 02 AUDIO
    TITLE "Piano Quartet № 1 g-moll K 478 – II. Andante"
    PERFORMER "Mozart"
    FLAGS DCP
    INDEX 01 14:17:35
  TRACK 03 AUDIO
    TITLE "Piano Quartet № 1 g-moll K 478 – III. Rondo. Allegro moderato"
    PERFORMER "Mozart"
    FLAGS DCP
    INDEX 01 21:17:11
  TRACK 04 AUDIO
    TITLE "Piano Quartet № 2 Es-Dur K 493 – I. Allegro"
    PERFORMER "Mozart"
    FLAGS DCP
    INDEX 00 29:05:53
    INDEX 01 29:17:68
  TRACK 05 AUDIO
    TITLE "Piano Quartet № 2 Es-Dur K 493 – II. Larghetto"
    PERFORMER "Mozart"
    FLAGS DCP
    INDEX 01 43:47:10
  TRACK 06 AUDIO
    TITLE "Piano Quartet № 2 Es-Dur K 493 – III. Allegretto"
    PERFORMER "Mozart"
    FLAGS DCP
    INDEX 01 57:57:02

-

auCDtect log

-----------------------
DON'T MODIFY THIS FILE
-----------------------
PERFORMER: auCDtect Task Manager, ver. 1.5.1RC4 build 1.5.1.5
Copyright (c) 2008-2010 y-soft. All rights reserved
http://y-soft.org
ANALYZER: auCDtect: CD records authenticity detector, version 0.8.2
Copyright (c) 2004 Oleg Berngardt. All rights reserved.
Copyright (c) 2004 Alexander Djourik. All rights reserved.
FILE: Piano Quartets.wav
  Size: 707091212 Hash: 095DA03DC4102850D0CB8047140F17AE Accuracy: -m0
  Conclusion: CDDA 100%
  Signature: 9B1CA9FF7BCF6B809B285B94D3CAA08D7F1A3248

-

Spectrogram

-



Показать сообщения:    

Текущее время: 06-Дек 22:57

Часовой пояс: UTC + 3


Вы не можете начинать темы
Вы не можете отвечать на сообщения
Вы не можете редактировать свои сообщения
Вы не можете удалять свои сообщения
Вы не можете голосовать в опросах
Вы не можете прикреплять файлы к сообщениям
Вы не можете скачивать файлы