(Score) Волчий зал / Wolf Hall (Debbie Wiseman) - 2015, FLAC (image+.cue), lossless


Статистика раздачи [Обновить пиров]
Размер:  276 MB   |    Зарегистрирован:  11 месяцев   |    Скачан:  0 раз

Полного источника не было: Никогда

 
   
 
 
 

[Цитировать]

Волчий зал / Wolf Hall
Жанр: Score
Композитор: Debbie Wiseman
Год выпуска диска: 2015
Год выпуска фильма: 2015
Страна-производитель диска: USA
Издатель (лейбл): Silva Screen Records
Номер по каталогу: SIL-CD-1472
Аудиокодек: FLAC (*.flac)
Тип рипа: image+.cue
Битрейт аудио: lossless
Продолжительность: 00:55:09
Источник: собственный рип
Наличие сканов в содержимом раздачи: да

Треклист

1. Wolf Hall2. Beginnings3. Prophecies and Dreams4. Devil's Spit5. Monstrous Servant6. Forgive Me7. The Scholar8. Master of Phantoms9. Anna Regina10. Still I Love Him11. The Smallest Compliment12. The Unicorn's Horn13. Whom the Lord Loves14. Austin Friars15. Crows16. Angel Wings17. Just Words18. Entirely Beloved

Лог создания рипа

Exact Audio Copy V1.0 beta 3 from 29. August 2011
Отчёт EAC об извлечении, выполненном 23. декабря 2015, 21:31
Debbie Wiseman / Wolf Hall
Дисковод: HL-DT-STDVDRAM GT30N Adapter: 0 ID: 0
Режим чтения : ДостоверностьИспользование точного потока : ДаОтключение кэша аудио : ДаИспользование указателей C2 : Нет
Коррекция смещения при чтении : 103Способность читать области Lead-in и Lead-out : НетЗаполнение пропущенных сэмплов тишиной : ДаУдаление блоков с тишиной в начале и конце : НетПри вычислениях CRC использовались нулевые сэмплы : ДаИнтерфейс : Установленный внешний ASPI-интерфейс
Выходной формат : Пользовательский кодировщикВыбранный битрейт : 1024 kBit/sКачество : ВысокийДобавление ID3-тега : НетУтилита сжатия : C:\Program Files (x86)\Exact Audio Copy\FLAC\FLAC.EXEДополнительные параметры : -V -8 -T "Date=%year%" -T "Genre=%genre%" %source%
TOC извлечённого CD
Трек | Старт | Длительность | Начальный сектор | Конечный сектор --------------------------------------------------------------------- 1 | 0:00.00 | 3:18.66 | 0 | 14915 2 | 3:18.66 | 2:46.09 | 14916 | 27374 3 | 6:05.00 | 3:50.60 | 27375 | 44684 4 | 9:55.60 | 1:53.53 | 44685 | 53212 5 | 11:49.38 | 3:01.03 | 53213 | 66790 6 | 14:50.41 | 2:09.16 | 66791 | 76481 7 | 16:59.57 | 2:31.49 | 76482 | 87855 8 | 19:31.31 | 3:15.23 | 87856 | 102503 9 | 22:46.54 | 4:17.45 | 102504 | 121823 10 | 27:04.24 | 4:37.51 | 121824 | 142649 11 | 31:42.00 | 2:51.01 | 142650 | 155475 12 | 34:33.01 | 2:25.15 | 155476 | 166365 13 | 36:58.16 | 2:35.59 | 166366 | 178049 14 | 39:34.00 | 4:47.53 | 178050 | 199627 15 | 44:21.53 | 2:16.37 | 199628 | 209864 16 | 46:38.15 | 2:23.32 | 209865 | 220621 17 | 49:01.47 | 2:57.38 | 220622 | 233934 18 | 51:59.10 | 3:09.36 | 233935 | 248145
Характеристики диапазона извлечения и сообщения об ошибках
Выбранный диапазон
Имя файла D:\Debbie Wiseman - Wolf Hall.wav
Пиковый уровень 97.5 % Скорость извлечения 2.1 X Качество диапазона 100.0 % CRC теста F141F3DD CRC копии F141F3DD Копирование... OK
Ошибок не произошло
AccurateRip: сводка
Трек 1 точность не определена (достоверность 8) [E9CE3EAB], AccurateRip вернул [F0F8F613] (AR v2)Трек 2 точность не определена (достоверность 8) [593C4238], AccurateRip вернул [27A6F074] (AR v2)Трек 3 точность не определена (достоверность 8) [31A7D909], AccurateRip вернул [1785762C] (AR v2)Трек 4 точность не определена (достоверность 8) [6A96B8F1], AccurateRip вернул [9BAFAE88] (AR v2)Трек 5 точность не определена (достоверность 8) [1AA11F3E], AccurateRip вернул [44F57ECB] (AR v2)Трек 6 точность не определена (достоверность 8) [42DC485C], AccurateRip вернул [D845EA0F] (AR v2)Трек 7 точность не определена (достоверность 8) [002D8874], AccurateRip вернул [E7B6C743] (AR v2)Трек 8 точность не определена (достоверность 8) [7C80161A], AccurateRip вернул [E2F96EED] (AR v2)Трек 9 точность не определена (достоверность 8) [240EF0A3], AccurateRip вернул [A85CDF7B] (AR v2)Трек 10 точность не определена (достоверность 8) [9F61837C], AccurateRip вернул [CF71EF25] (AR v2)Трек 11 точность не определена (достоверность 8) [22A8707A], AccurateRip вернул [83F2D444] (AR v2)Трек 12 точность не определена (достоверность 8) [9D19D48C], AccurateRip вернул [8E1772BE] (AR v2)Трек 13 точность не определена (достоверность 8) [687778E7], AccurateRip вернул [EC7152BE] (AR v2)Трек 14 точность не определена (достоверность 8) [DCEBE500], AccurateRip вернул [E4ADB103] (AR v2)Трек 15 точность не определена (достоверность 8) [4C28D12D], AccurateRip вернул [5525DB07] (AR v2)Трек 16 точность не определена (достоверность 8) [6E0E1D40], AccurateRip вернул [4D907A2A] (AR v2)Трек 17 точность не определена (достоверность 8) [86813287], AccurateRip вернул [1C0E70E2] (AR v2)Трек 18 точность не определена (достоверность 8) [08F11C63], AccurateRip вернул [4262A2AB] (AR v2)
Ни один трек не прошёл проверки на точностьВ вашей базе может быть иной вариант штамповки диска
Конец отчёта
==== Контрольная сумма отчёта 46F0BDAF33CDC566E188C39435E8572CF00326B022FA9F46387A70232A6EDC52 ====

Содержание индексной карты (.CUE)

REM GENRE SoundtrackREM DATE 2015REM DISCID DE0CEC12REM COMMENT "ExactAudioCopy v1.0b3"PERFORMER "Debbie Wiseman"TITLE "Wolf Hall"FILE "Debbie Wiseman - Wolf Hall.flac" WAVE TRACK 01 AUDIO TITLE "Wolf Hall" PERFORMER "Debbie Wiseman" INDEX 01 00:00:00 TRACK 02 AUDIO TITLE "Beginnings" PERFORMER "Debbie Wiseman" INDEX 01 03:18:66 TRACK 03 AUDIO TITLE "Prophecies and Dreams" PERFORMER "Debbie Wiseman" INDEX 01 06:05:00 TRACK 04 AUDIO TITLE "Devil's Spit" PERFORMER "Debbie Wiseman" INDEX 01 09:55:60 TRACK 05 AUDIO TITLE "Monstrous Servant" PERFORMER "Debbie Wiseman" INDEX 01 11:49:38 TRACK 06 AUDIO TITLE "Forgive Me" PERFORMER "Debbie Wiseman" INDEX 01 14:50:41 TRACK 07 AUDIO TITLE "The Scholar" PERFORMER "Debbie Wiseman" INDEX 01 16:59:57 TRACK 08 AUDIO TITLE "Master of Phantoms" PERFORMER "Debbie Wiseman" INDEX 01 19:31:31 TRACK 09 AUDIO TITLE "Anna Regina" PERFORMER "Debbie Wiseman" INDEX 01 22:46:54 TRACK 10 AUDIO TITLE "Still I Love Him" PERFORMER "Debbie Wiseman" INDEX 01 27:04:24 TRACK 11 AUDIO TITLE "The Smallest Compliment" PERFORMER "Debbie Wiseman" INDEX 01 31:42:00 TRACK 12 AUDIO TITLE "The Unicorn's Horn" PERFORMER "Debbie Wiseman" INDEX 01 34:33:01 TRACK 13 AUDIO TITLE "Whom The Lord Loves" PERFORMER "Debbie Wiseman" INDEX 01 36:58:16 TRACK 14 AUDIO TITLE "Austin Friars" PERFORMER "Debbie Wiseman" INDEX 01 39:34:00 TRACK 15 AUDIO TITLE "Crows" PERFORMER "Debbie Wiseman" INDEX 01 44:21:53 TRACK 16 AUDIO TITLE "Angel Wings" PERFORMER "Debbie Wiseman" INDEX 01 46:38:15 TRACK 17 AUDIO TITLE "Just Words" PERFORMER "Debbie Wiseman" INDEX 01 49:01:47 TRACK 18 AUDIO TITLE "Entirely Beloved" PERFORMER "Debbie Wiseman" INDEX 01 51:59:10

Лог проверки качества

-----------------------
DON'T MODIFY THIS FILE
-----------------------
PERFORMER: auCDtect Task Manager, ver. 1.6.0 RC1 build 1.6.0.1Copyright (c) 2008-2010 y-soft. All rights reservedhttp://y-soft.org
ANALYZER: auCDtect: CD records authenticity detector, version 0.8.2Copyright (c) 2004 Oleg Berngardt. All rights reserved.Copyright (c) 2004 Alexander Djourik. All rights reserved.
FILE: Debbie Wiseman - Wolf Hall.flac Size: 231425478 Hash: 1FC3C4792ECD087F4E372B410BE02B92 Accuracy: -m0 Conclusion: CDDA 99% Signature: 62A66869B86F42F987B35940BAB933EA12FB9370
[teatrix.ru].t12536.torrent 
Торрент: Зарегистрирован [ 2016-01-03 23:20 ] · 7A71B35DB7E9C217058F2955742D937EE7E1E670

Скачать .torrent

Скачать

12 KB

Статус: проверено
Скачан: 0 раз
Размер: 276 MB
terms.php



Быстрый ответ

Имя:

      
Для отправки сообщений необходимо включить JavaScript
Показать сообщения:    

Текущее время: 04-Дек 21:24

Часовой пояс: UTC + 3


Вы можете начинать темы
Вы можете отвечать на сообщения
Вы не можете редактировать свои сообщения
Вы не можете удалять свои сообщения
Вы не можете голосовать в опросах
Вы не можете прикреплять файлы к сообщениям
Вы можете скачивать файлы