Клео от 5 до 7 / Cléo de 5 à 7 / Cléo from 5 to 7 (Аньес Варда / Agnès Varda) [1962, Франция, драма, DVDRip] VO (lehachuev) + Sub Rus, Eng + Original Fre


Статистика раздачи [Обновить пиров]
Размер:  1.46 GB   |    Зарегистрирован:  11 месяцев 4 дня   |    Скачан:  0 раз

Полного источника не было: Никогда

 
   
 
 
 

[Цитировать]

Клео от 5 до 7 / Cléo de 5 à 7 / Cléo from 5 to 7
Страна: Франция
Жанр: драма
Год выпуска: 1962
Продолжительность: 01:29:55
Перевод: Одноголосый закадровый - lehachuev
Cубтитры: русские (Seandy), русские (sskain), английские
Оригинальная аудиодорожка: французский

Режиссер: Аньес Варда / Agnès Varda
В ролях: Коринн Маршан, Антуан Бурсейе, Доминик Даврэ, Доротея Бланк, Мишель Легран, Хосе Луис де Вильялонга, Лойе Пайен, Рене Дюшато, Люсьенн Маршан, Серж Корбер
Описание: Начинающая певица Флоранс обеспокоена своим здоровьем и, в ожидании результатов медицинского теста, она идёт к гадалке. Карты Таро показывают смерть, и, хотя гадалка пытается это скрыть, Клео окончательно теряет душевный покой. Не находя ни понимания, ни сочувствия своим тревогам, охваченная смятением, Клео не может оставаться дома и выходит на улицу. Она заходит в кафе, встречается с подругой, бродит по городу и знакомится с молодым мужчиной, который, гуляя по парку, прощается с мирной жизнью — он солдат и ему предстоит отъезд в Алжир, где идёт война…
Качество видео: DVDRip
Формат видео: AVI
Видео: 656x400 (1.64:1), 23.976 fps, XviD build 73 ~1985 kbps avg, 0.32 bit/pixel
Аудио: 48 kHz, AC3 Dolby Digital, 2/0 (L,R) ch, ~128 kbps - одноголосый
Аудио: 48 kHz, AC3 Dolby Digital, 1/0 (C) ch, ~192 kbps - оригинал

MediaInfo

Общее
Полное имя : H:\Cleo.de.5.a.7.1962.dvdrip_[1.46]_[teko]\Cleo.de.5.a.7.1962.dvdrip_[1.46].avi
Формат : AVI
Формат/Информация : Audio Video Interleave
Размер файла : 1,46 Гбайт
Продолжительность : 1 ч. 29 м.
Общий поток : 2321 Кбит/сек
Программа кодирования : VirtualDubMod 1.5.10.3 | www.virtualdub-fr.org || (build 2550/release)
Библиотека кодирования : VirtualDubMod build 2550/release
Видео
Идентификатор : 0
Формат : MPEG-4 Visual
Профиль формата : Advanced Simple@L5
Параметр BVOP формата : 1
Параметр QPel формата : Нет
Параметр GMC формата : Без точки перехода
Параметр матрицы формата : Выборочная
Идентификатор кодека : XVID
Идентификатор кодека/Подсказка : XviD
Продолжительность : 1 ч. 29 м.
Битрейт : 1986 Кбит/сек
Ширина : 656 пикселей
Высота : 400 пикселей
Соотношение сторон : 16:10
Частота кадров : 23,976 кадра/сек
Цветовое пространство : YUV
Субдискретизация насыщенности : 4:2:0
Битовая глубина : 8 бит
Тип развёртки : Прогрессивная
Метод сжатия : С потерями
Бит/(Пиксели*Кадры) : 0.316
Размер потока : 1,25 Гбайт (86%)
Библиотека кодирования : XviD 73
Аудио #1
Идентификатор : 1
Формат : AC-3
Формат/Информация : Audio Coding 3
Расширение режима : CM (complete main)
Параметр Endianness формата : Big
Идентификатор кодека : 2000
Продолжительность : 1 ч. 29 м.
Вид битрейта : Постоянный
Битрейт : 128 Кбит/сек
Каналы : 2 канала
Расположение каналов : Front: L R
Частота : 48,0 КГц
Битовая глубина : 16 бит
Метод сжатия : С потерями
Размер потока : 82,3 Мбайт (6%)
Выравнивание : Разделение по промежуткам
Продолжительность промежутка : 42 мс. (1,00 видеокадр)
Время предзагрузки промежутка : 500 мс.
Аудио #2
Идентификатор : 2
Формат : AC-3
Формат/Информация : Audio Coding 3
Расширение режима : CM (complete main)
Параметр Endianness формата : Big
Идентификатор кодека : 2000
Продолжительность : 1 ч. 29 м.
Вид битрейта : Постоянный
Битрейт : 192 Кбит/сек
Каналы : 1 канал
Расположение каналов : Front: C
Частота : 48,0 КГц
Битовая глубина : 16 бит
Метод сжатия : С потерями
Размер потока : 124 Мбайт (8%)
Выравнивание : Разделение по промежуткам
Продолжительность промежутка : 42 мс. (1,00 видеокадр)
Время предзагрузки промежутка : 500 мс.
[teatrix.ru].t12543.torrent 
Торрент: Зарегистрирован [ 2016-01-04 03:35 ] · 087739FCF8D64B8B3CAC8C9F566996F69B9D45A4

Скачать .torrent

Скачать

15 KB

Статус: проверено
Скачан: 0 раз
Размер: 1.46 GB
terms.php



Быстрый ответ

Имя:

      
Для отправки сообщений необходимо включить JavaScript
Показать сообщения:    

Текущее время: 08-Дек 19:12

Часовой пояс: UTC + 3


Вы можете начинать темы
Вы можете отвечать на сообщения
Вы не можете редактировать свои сообщения
Вы не можете удалять свои сообщения
Вы не можете голосовать в опросах
Вы не можете прикреплять файлы к сообщениям
Вы можете скачивать файлы