Juan Diego Florez and Friends in Concert for Sinfonia por el Peru (Offenbach, Mozart, Rossini, Dvorak, Puccini) Andriy Yurkevych, Harmonia Symphony Orchestra, Luca Pisaroni, Ildar Abdrazakov, Aida Garifullina [2015, Classical / Vocal, HDTV 720p]


 

[Цитировать]

Juan Diego Flórez and Friends in Concert for
Sinfonía por el Perú

Andriy Yurkevych • Harmonia Symphony Orchestra

-
Год выпуска: 2015
Лейбл: Sintonía Media
Жанр: Classical / Vocal / Orchestral
Продолжительность: 00:43:15
Режиссер: Ágnes Méth
Исполнители:
Juan Diego Flórez - tenor
Luca Pisaroni - bass
Ildar Abdrazakov / Ильдар Абдразаков - bass
Valentina Naforniţă - soprano
Aida Garifullina / Аида Гарифуллина - soprano
Vittorio Grigòlo - tenor
Треклист:
- Jacques Offenbach - La Vie Parisienne: Ouvertüre
- Jacques Offenbach - La Belle Hélène: Au mont Ida (Juan Diego Flórez)
- Wolfgang Amadeus Mozart - Don Giovanni: Madamina (Luca Pisaroni)
- Gioachino Rossini - L'italiana in Algeri: Se inclinassi a prender moglie (Juan Diego Flórez / Ildar Abdrazakov)
- Antonín Dvořák - Rusalka: Měsíčku na nebi hlubokém (Song to the Moon) (Valentina Naforniţă)
- Giacomo Puccini - La Bohème: Quando m’en vo’ (Aida Garifullina)
- Giacomo Puccini - Tosca: E lucevan le stelle (Vittorio Grigòlo)
- Jules Massenet - Werther: Pourquoi me réveiller (Juan Diego Flórez)
Доп. информация:
Wiener Philharmoniker
Juan Diego Flórez & Friends in Concert arte.tv
Juan Diego Flórez Official Site
Juan Diego Flórez from Wikipedia, the free encyclopedia
Valentina Naforniţă Official Site
Valentina Naforniţă from Wikipedia, the free encyclopedia
Aida Garifullina Official Site
Aida Garifullina from Wikipedia, the free encyclopedia
Andriy Yurkevych teatrwielki.pl
Качество видео: HDTV 720p
Контейнер: TS
Видео кодек: H.264
Аудио кодек: AC3
Видео поток: 7 338 Kbps, 1280*720 (16:9), at 50.000 fps, AVC (High@L4.0) (CABAC / 4 Ref Frames)
Аудио поток: German, 192 Kbps, 48.0 KHz, 2 channels, MPEG Audio (Version 1) (Layer 2)
Аудио 2: French, 192 Kbps, 48.0 KHz, 2 channels, MPEG Audio (Version 1) (Layer 2)
Аудио 3: Multiple languages, 448 Kbps, 48.0 KHz, 16 bits, 6 channels, AC-3
Аудио 4: 192 Kbps, 48.0 KHz, 2 channels, MPEG Audio (Version 1) (Layer 2)
Источник: Digital Satellite > SkyStar HD2 (TechniSat) > raw data to HDD > Cypheros TS-Doctor > Smart Cutter (cut) > ts

MediaInfo

GeneralID : 8900 (0x22C4)Complete name : C:\\arte HD_Juan Diego Florez and Friends in Concert for Sinfonia por el Peru (Andriy Yurkevych) 2015.tsFormat : MPEG-TSFile size : 2.66 GiBDuration : 43mn 15sOverall bit rate mode : VariableOverall bit rate : 8 808 Kbps
VideoID : 5111 (0x13F7)Menu ID : 10302 (0x283E)Format : AVCFormat/Info : Advanced Video CodecFormat profile : High@L4.0Format settings, CABAC : YesFormat settings, ReFrames : 4 framesCodec ID : 27Duration : 43mn 15sBit rate : 7 338 KbpsWidth : 1 280 pixelsHeight : 720 pixelsDisplay aspect ratio : 16:9Frame rate : 50.000 fpsColor space : YUVChroma subsampling : 4:2:0Bit depth : 8 bitsScan type : ProgressiveBits/(Pixel*Frame) : 0.159Stream size : 2.22 GiB (83%)
Audio #1ID : 5112 (0x13F8)Menu ID : 10302 (0x283E)Format : MPEG AudioFormat version : Version 1Format profile : Layer 2Codec ID : 3Duration : 43mn 15sBit rate mode : ConstantBit rate : 192 KbpsChannel(s) : 2 channelsSampling rate : 48.0 KHzCompression mode : LossyDelay relative to video : -2msStream size : 59.4 MiB (2%)Language : German
Audio #2ID : 5113 (0x13F9)Menu ID : 10302 (0x283E)Format : MPEG AudioFormat version : Version 1Format profile : Layer 2Codec ID : 3Duration : 43mn 15sBit rate mode : ConstantBit rate : 192 KbpsChannel(s) : 2 channelsSampling rate : 48.0 KHzCompression mode : LossyDelay relative to video : -2msStream size : 59.4 MiB (2%)Language : French
Audio #3ID : 5116 (0x13FC)Menu ID : 10302 (0x283E)Format : AC-3Format/Info : Audio Coding 3Mode extension : CM (complete main)Format settings, Endianness : BigCodec ID : 6Duration : 43mn 15sBit rate mode : ConstantBit rate : 448 KbpsChannel(s) : 6 channelsChannel positions : Front: L C R, Side: L R, LFESampling rate : 48.0 KHzBit depth : 16 bitsCompression mode : LossyDelay relative to video : -20msStream size : 139 MiB (5%)Language : Multiple languages
Audio #4ID : 5117 (0x13FD)Menu ID : 10302 (0x283E)Format : MPEG AudioFormat version : Version 1Format profile : Layer 2Codec ID : 3Duration : 43mn 15sBit rate mode : ConstantBit rate : 192 KbpsChannel(s) : 2 channelsSampling rate : 48.0 KHzCompression mode : LossyDelay relative to video : -2msStream size : 59.4 MiB (2%)
... info ...">

Скриншоты ... info ...


Musik als Mittel für Entwicklung und soziale Integration: Für dieses Anliegen konnte der peruanisch-österreichische Tenor Künstler gewinnen, die wie er selbst internationalen Ruhm genießen: In dieser Sendung singen Luca Pisaroni, Ildar Abdrazakov, Valentina Nafornita, Aida Garifullina und Vittorio Grigolo, begleitet vom Harmonia Symphony Orchestra unter der Leitung von Andriy Yurkevych. Das Ensemble - es vereint junge Musiker aus Peru, Kolumbien, der Türkei und Südafrika - spielt zusammen mit Musikern aus den Reihen der Wiener Philharmoniker.
Auf der Benefiz-Gala im April erklangen beliebte Arien von Mozart, Massenet, Puccini, Offenbach und Rossini. Mit Perlen aus dem französischen, deutschen und italienischen Opernrepertoire vermittelt das Programm eine Botschaft der Zuwendung und der Solidarität.
Die Einnahmen des Benefiz-Galakonzertes kamen zur Gänze der Organisation „Sinfonía por el Perú“ zugute, einem umfassenden, von Juan Diego Flórez gegründeten Sozialprojekt. Es unterstützt benachteiligte Kinder in Peru - dem Heimatland des Tenors - durch die Schaffung von Zentren, in denen Orchester- und Chorpraxis ausgeübt werden. Bereits in 15 verschiedenen Städten wurden musikalische Zentren errichtet, in denen Jungen und Mädchen aus schwierigen Lebensverhältnissen kostenlosen Musikunterricht bekommen.
Juan Diego Flórez selbst begann seine Musikausbildung in seiner Heimatstadt Lima. Später setzte er seine Studien in den USA und Italien fort und gab 1996 sein Operndebüt beim Rossini Opera Festival in Pesaro. Heute gilt Flórez als einer der international renommiertesten Tenöre weltweit.
~ arte.tv/guide


Последний раз редактировалось: admin (2016-01-05 16:15), всего редактировалось 2 раз(а)

[Цитировать]

Спасибо!


Показать сообщения:    

Текущее время: 11-Дек 11:00

Часовой пояс: UTC + 3


Вы не можете начинать темы
Вы не можете отвечать на сообщения
Вы не можете редактировать свои сообщения
Вы не можете удалять свои сообщения
Вы не можете голосовать в опросах
Вы не можете прикреплять файлы к сообщениям
Вы не можете скачивать файлы