[SACD-R][OF]Vanessa Wagner - Ravel: Piano works - 2013 (Classical, Solo, Piano)


Статистика раздачи [Обновить пиров]
Размер:  399 MB   |    Зарегистрирован:  11 месяцев 1 день   |    Скачан:  0 раз

Полного источника не было: Никогда

 
   
 
 
 

[Цитировать]

Vanessa Wagner
Maurice Ravel: Piano works (Édition 5.1)-Дата записи: 1-3.10.2013 • Год издания: 2013 • Длительность: 01:03:14
Жанр: Classical/Solo/Piano • Лейбл: Aparté: AP062
Кодек: FLAC • Битрейт: lossless • Тип рипа: tracks
Разрядность: 16/44,1 • Количество каналов: 5.1
Источник: WEBСканы: Digital booklet
-01-05. Ma mère l’Oye
I. Pavane de la Belle au bois dormant |1:50| II. Petit Poucet |2:47| III. Laideronnette, Impératrice des Pagodes |3:06|
IV. Les entretiens de la Belle et de la Bête |4:37| V. Le jardin féérique |3:33|
06-13. Valses nobles et sentimentales
I. Modéré |1:12| II. Assez lent |2:18| III. Modéré |1:23| IV. Assez animé |1:04|
V. Presque lent |0:50| VI. Assez vif |0:46| VII. Moins vif |3:26| VIII. Lent |5:05|
14-16. Gaspard de la nuit
I. Ondine |6:26| II. Le Gibet |8:27| III. Scarbo |9:19|
17. Pavane pour une infante défunte |7:06|
-Исполнитель:
Vanessa Wagner, piano-Об исполнителе:Ванесса Вагнер - французская пианистка. Родилась в Ренне 11 июня 1973 года. Окончила Парижскую консерваторию, ученица Доминик Мерле и Жана Франсуа Эссе. Затем совершенствовала своё мастерство в Италии под руководством Леона Флейшера, Мюррея Перайи, Алексиса Вайссенберга и других. В 1999 году была удостоена премии Виктуар де ля мюзик как молодая исполнительница — открытие года. Гастролирует в различных городах Франции и странах Европы, выступала также в Японии и Китае. Дискография Вагнер включает второй концерт Теодора Дюбуа, сонаты Моцарта, Шуберта, Шумана, Рахманинова, пьесы Дебюсси, сонату для виолончели и фортепиано Бриттена (с Офели Гайяр). Творческое содружество связывает Вагнер с Паскалем Дюсапеном, чьи новые сочинения она регулярно исполняет.

Лог проверки качества

foobar2000 1.3.9 / Замер динамического диапазона (DR) 1.1.1
Дата отчёта: 2016-01-03 23:50:10
--------------------------------------------------------------------------------
Анализ: Vanessa Wagner / Ravel: Piano Works (Édition 5.1)
--------------------------------------------------------------------------------
DR Пики RMS Продолжительность трека
--------------------------------------------------------------------------------
DR13 -16.15 дБ -40.34 дБ 1:50 01-Ma mère l’Oye, I. Pavane de la Belle au bois dormant
DR14 -8.53 дБ -31.89 дБ 2:47 02-Ma mère l’Oye, II. Petit Poucet
DR14 -4.13 дБ -29.09 дБ 3:06 03-Ma mère l’Oye, III. Laideronnette, Impératrice des Pagodes
DR16 -5.09 дБ -31.54 дБ 4:37 04-Ma mère l’Oye, IV. Les entretiens de la Belle et de la Bête
DR15 -5.70 дБ -31.49 дБ 3:33 05-Ma mère l’Oye, V. Le jardin féérique
DR12 -2.65 дБ -22.44 дБ 1:12 06-Valses nobles et sentimentales, I. Modéré
DR15 -7.22 дБ -34.31 дБ 2:18 07-Valses nobles et sentimentales, II. Assez lent
DR12 -8.99 дБ -31.42 дБ 1:23 08-Valses nobles et sentimentales, III. Modéré
DR11 -6.59 дБ -25.61 дБ 1:04 09-Valses nobles et sentimentales, IV. Assez animé
DR12 -8.50 дБ -29.95 дБ 0:50 10-Valses nobles et sentimentales, V. Presque lent
DR12 -7.02 дБ -29.17 дБ 0:46 11-Valses nobles et sentimentales, VI. Assez vif
DR13 -2.52 дБ -25.56 дБ 3:26 12-Valses nobles et sentimentales, VII. Moins vif
DR15 -11.15 дБ -36.98 дБ 5:05 13-Valses nobles et sentimentales, VIII. Lent
DR14 -2.19 дБ -27.60 дБ 6:26 14-Gaspard de la nuit, I. Ondine
DR19 -9.43 дБ -39.88 дБ 8:27 15-Gaspard de la nuit, II. Le Gibet
DR14 -0.63 дБ -25.50 дБ 9:19 16-Gaspard de la nuit, III. Scarbo
DR17 -5.84 дБ -33.28 дБ 7:06 17-Pavane pour une infante défunte
--------------------------------------------------------------------------------
Количество треков: 17
Реальные значения DR: DR14
Частота: 44100 Гц
Каналов: 6
Разрядность: 16
Битрейт: 782 кбит/с
Кодек: FLAC
================================================================================

Скриншот спектра частот

Track 07
[teatrix.ru].t12552.torrent 
Торрент: Зарегистрирован [ 2016-01-04 03:35 ] · 65782EE5011C3DEB29214F5D724722ACC6262D6A

Скачать .torrent

Скачать

18 KB

Статус: проверено
Скачан: 0 раз
Размер: 399 MB
terms.php



Быстрый ответ

Имя:

      
Для отправки сообщений необходимо включить JavaScript
Показать сообщения:    

Текущее время: 05-Дек 17:34

Часовой пояс: UTC + 3


Вы можете начинать темы
Вы можете отвечать на сообщения
Вы не можете редактировать свои сообщения
Вы не можете удалять свои сообщения
Вы не можете голосовать в опросах
Вы не можете прикреплять файлы к сообщениям
Вы можете скачивать файлы