Деревья умирают стоя (Михаил Салес) [2010 г., Мелодрама, WEB-DLRip] Калининградский областной драматический театр


 

[Цитировать]

Деревья умирают стоя Название театра: Калининградский областной драматический театр.
Год выпуска: 2010.
Жанр: Мелодрама в 2-х действиях.
Продолжительность: 01:49:33.
Режиссер-постановщик: народный артист России Михаил Салес.
Действующие лица и исполнители:
Бабушка - заслуженная артистка Грузии Тамара Соловьева,
Сеньор Бальбоа - заслуженная артистка Грузии Волемир Грузец,
Марта Изабелла - Наталья Салес,
Маурисьо - Василий Швечков (мл.),
Другой - Максим Махинов,
Хеновева - Галина Лукина,
Фелиса, горничная - Светлана Малиновская,
Эленна - Людмила Зиновьева,
Амелия - Елена Носырева,
Красавчик-Хуан - Артем Лернер,
Нищий - Виталий Баженов.
О спектакле:
Иносказательно название пьесы-мелодрамы испанского драматурга Алехандро Касоны говорит о необходимости достойного поведения в любых обстоятельствах. Но обстоятельства бывают разные.
Директор необычной фирмы находит людей, которые сами когда-то пережили сложные жизненные коллизии, и нанимает их на работу в качестве актёров. Так подставные лица оказываются в доме сеньора Бальбоа в образах внука и его молодой жены. Сделано это для того, чтобы как-то утешить заболевшую супругу сеньора Бальбоа Эухену. Но когда настоящий внук вдруг возвращается – тогда и наступает момент истины. Это нешуточное испытание для всех на стойкость, порядочность и подлинность чувств.

Дополнительная информация:
Страна: Россия .
Автор: Алехандро Касона.
Перевод с испанского.
Режиссер-постановщик и музыкальное оформление: народный артист России Михаил Салес.
Художник-постановщик: Владимир Козлов.
Художник по костюмам: Татьяна Старикова.
Премьера спектакля состоялась 2 октября 2010 года.

О спектакле.
Релиз
Рип sharky.

Качество видео:...WEB-DLRip
Формат:.................AVI
Видео:..704x384 (1.83:1), 25 fps, DivX Codec 4.x ~1759 kbps avg, 0.26 bit/pixel
Аудио:..44.100 kHz, MPEG Layer 3, 2 ch, ~128.00 kbps avg

Отчет MI

Общее
Полное имя : Derev'ya.umirayut.stoya_Kaliningradskij.ODT.2010.DivX.WEB-DLRip.fenixclub.avi
Format : AVI
Format/Info : Audio Video Interleave
File size : 1.45 GiB
Duration : 1h 49mn
Overall bit rate : 1 897 Kbps
Video
ID : 0
Format : MPEG-4 Visual
Format settings, BVOP : 1
Format settings, QPel : No
Format settings, GMC : No warppoints
Format settings, Matrix : Default (H.263)
Codec ID : DX50
Codec ID/Hint : DivX 5
Duration : 1h 49mn
Bit rate : 1 759 Kbps
Width : 704 pixels
Height : 384 pixels
Display aspect ratio : 1.85:1
Frame rate : 25.000 fps
Color space : YUV
Chroma subsampling : 4:2:0
Bit depth : 8 bits
Scan type : Progressive
Compression mode : Lossy
Bits/(Pixel*Frame) : 0.260
Stream size : 1.35 GiB (93%)
Title : Video
Writing library : DivX 3013
Audio
ID : 1
Format : MPEG Audio
Format version : Version 1
Format profile : Layer 3
Codec ID : 55
Codec ID/Hint : MP3
Duration : 1h 49mn
Bit rate mode : Constant
Bit rate : 128 Kbps
Channel(s) : 2 channels
Sampling rate : 44.1 KHz
Compression mode : Lossy
Stream size : 100 MiB (7%)
Alignment : Split accross interleaves
Interleave, duration : 40 ms (1.00 video frame)
Interleave, preload duratio : 500 ms
Title : Audio

Скриншоты


Альтернативный хост





Показать сообщения:    

Текущее время: 11-Дек 16:54

Часовой пояс: UTC + 3


Вы не можете начинать темы
Вы не можете отвечать на сообщения
Вы не можете редактировать свои сообщения
Вы не можете удалять свои сообщения
Вы не можете голосовать в опросах
Вы не можете прикреплять файлы к сообщениям
Вы не можете скачивать файлы