(Classical, Waltz) Johann Strauss - Blue Danube - Strauss Waltzes (Eugene Ormandy, The Philadelphia Orchestra) - 1990, FLAC (image+.cue) lossless


 

[Цитировать]

Johann Strauss - Blue Danube - Strauss Waltzes
Жанр: Classical, Waltz
Страна-производитель диска: USA
Год издания диска: 1990
Издатель (лейбл): RCA Victor Silver Seal
Номер по каталогу: VD 60490
Дата записи: 1968-71
Аудиокодек: FLAC
Тип рипа: image+.cue
Битрейт аудио: lossless
Продолжительность: 01:08:29
Источник: собственный рип
Наличие сканов в содержимом раздачи: да
Треклист:
1 On The Beautiful Blue Danube
2 Vienna Blood
3 Emperor Waltz
4 Treasure Waltz
5 Where The Citrons Bloom
6 Morning Papers
7 Artists' Life
8 Tales From The Vienna Woods
Исполнители:
Conductor – Eugene Ormandy
Orchestra – The Philadelphia Orchestra

Лог создания рипа

Exact Audio Copy V1.1 from 23. June 2015
Отчёт EAC об извлечении, выполненном 29. декабря 2015, 15:44
Ormandy / Strauss Waltzes
Дисковод: HL-DT-STDVDRAM GT32N Adapter: 1 ID: 0
Режим чтения : ДостоверностьИспользование точного потока : ДаОтключение кэша аудио : ДаИспользование указателей C2 : Нет
Коррекция смещения при чтении : 103Способность читать области Lead-in и Lead-out : НетЗаполнение пропущенных сэмплов тишиной : ДаУдаление блоков с тишиной в начале и конце : НетПри вычислениях CRC использовались нулевые сэмплы : ДаИнтерфейс : Встроенный Win32-интерфейс для Win NT/2000
Выходной формат : Пользовательский кодировщикВыбранный битрейт : 128 kBit/sКачество : ВысокийДобавление ID3-тега : НетУтилита сжатия : C:\Program Files (x86)\Exact Audio Copy\Flac\flac.exeДополнительные параметры : -V -8 -T "Date=%year%" -T "Genre=%genre%" %source%
TOC извлечённого CD
Трек | Старт | Длительность | Начальный сектор | Конечный сектор --------------------------------------------------------------------- 1 | 0:00.00 | 8:50.07 | 0 | 39756 2 | 8:50.07 | 7:40.20 | 39757 | 74276 3 | 16:30.27 | 10:28.70 | 74277 | 121446 4 | 26:59.22 | 6:47.00 | 121447 | 151971 5 | 33:46.22 | 6:41.60 | 151972 | 182106 6 | 40:28.07 | 9:00.38 | 182107 | 222644 7 | 49:28.45 | 8:10.10 | 222645 | 259404 8 | 57:38.55 | 10:45.25 | 259405 | 307804
Характеристики диапазона извлечения и сообщения об ошибках
Выбранный диапазон
Имя файла C:\Users\Elvis\Documents\Ormandy - Strauss Waltzes\Ormandy - Strauss Waltzes.wav
Пиковый уровень 80.2 % Скорость извлечения 2.2 X Качество диапазона 100.0 % CRC теста FD776335 CRC копии FD776335 Копирование... OK
Ошибок не произошло
AccurateRip: сводка
Трек 1 точность не определена (достоверность 1) [A065FEEF], AccurateRip вернул [BFE2B6C4] (AR v2)Трек 2 точность не определена (достоверность 1) [895F7DF5], AccurateRip вернул [9481C0EA] (AR v2)Трек 3 точность не определена (достоверность 1) [D93DA8E7], AccurateRip вернул [3A14E586] (AR v2)Трек 4 точность не определена (достоверность 1) [67049CA7], AccurateRip вернул [7CF7AD9B] (AR v2)Трек 5 точность не определена (достоверность 1) [402B2842], AccurateRip вернул [F093DB32] (AR v2)Трек 6 точность не определена (достоверность 1) [10C31C0C], AccurateRip вернул [FFCE95E3] (AR v2)Трек 7 точность не определена (достоверность 1) [7AEF4F09], AccurateRip вернул [F93363DD] (AR v2)Трек 8 точность не определена (достоверность 1) [05A6EAB8], AccurateRip вернул [16D2F085] (AR v2)
Ни один трек не прошёл проверки на точностьВ вашей базе может быть иной вариант штамповки диска
Конец отчёта
==== Контрольная сумма отчёта 4F4C11E09E0E123B02096913200B220A0B06A765B459DBA4DB3FBD762731234B ====

Содержание индексной карты (.CUE)

REM GENRE WaltzREM DATE 1971REM DISCID 5E100808REM COMMENT "ExactAudioCopy v1.1"PERFORMER "Ormandy"TITLE "Strauss Waltzes"FILE "Ormandy - Strauss Waltzes.flac" WAVE TRACK 01 AUDIO TITLE "On The Beautiful Blue Danube, Op. 314" PERFORMER "Ormandy" INDEX 01 00:00:00 TRACK 02 AUDIO TITLE "Vienna Blood, Op. 354" PERFORMER "Ormandy" INDEX 00 08:46:42 INDEX 01 08:50:07 TRACK 03 AUDIO TITLE "Emperor Waltz, Op. 437" PERFORMER "Ormandy" INDEX 00 16:26:35 INDEX 01 16:30:27 TRACK 04 AUDIO TITLE "Treasure Waltz, Op. 418" PERFORMER "Ormandy" INDEX 00 26:54:45 INDEX 01 26:59:22 TRACK 05 AUDIO TITLE "Where The Citrons Bloom, Op. 364" PERFORMER "Ormandy" INDEX 00 33:42:42 INDEX 01 33:46:22 TRACK 06 AUDIO TITLE "Morning Papers, Op. 279" PERFORMER "Ormandy" INDEX 00 40:25:00 INDEX 01 40:28:07 TRACK 07 AUDIO TITLE "Artisi's Life, Op. 316" PERFORMER "Ormandy" INDEX 00 49:25:30 INDEX 01 49:28:45 TRACK 08 AUDIO TITLE "Tales From The Vienna Woods, Op. 325" PERFORMER "Ormandy" INDEX 00 57:35:15 INDEX 01 57:38:55



Показать сообщения:    

Текущее время: 03-Дек 14:40

Часовой пояс: UTC + 3


Вы не можете начинать темы
Вы не можете отвечать на сообщения
Вы не можете редактировать свои сообщения
Вы не можете удалять свои сообщения
Вы не можете голосовать в опросах
Вы не можете прикреплять файлы к сообщениям
Вы не можете скачивать файлы