Моцарт (Анастасия Попова) [2008, Документальный, история. биография. драма, музыкал, IPTVRip]


Статистика раздачи [Обновить пиров]
Размер:  1.27 GB   |    Зарегистрирован:  11 месяцев 4 дня   |    Скачан:  5 раз
Сидов:  2  [  0 KB/s  ]   Подробная статистика пиров
 
   
 
 
 

[Цитировать]

Моцарт
Дата/Год выпуска: 2008
Страна: Россия
Жанр: Документальный, история, биография, драма, музыка
Продолжительность: 2х~00:41:11
Перевод: Не требуется
Русские субтитры: нет
Режиссер: Анастасия Попова
Телеканал: История
Описание: Фильм о загадочных обстоятельствах жизни и тайне смерти Вольфганга Амадея Моцарта. ХIX век. Профессор Франц Йозеф Галль демонстрирует на лекциях в университете череп Моцарта, утверждая, что находится на пороге сенсационного открытия. Ученый убежден, что нашел формулу гениальности. Над этой тайной и раньше ломали головы. Однако профессор, в отличие от своих предшественников - математиков, философов и алхимиков, точно знал, где искать ответ. Галль возглавил школу френологии - науки, позволяющей распознавать гениальность по строению черепа. Он был почти уверен, что еще немного, и ему удастся заставить заговорить череп великого композитора. В детстве Моцарт мог часами сидеть над цифрами, точно завороженный, испещряя ими тетрадки, стулья, столы. Вольфганг мог бы стать великим математиком или физиком. Но его отец Леопольд решил иначе. Его сын будет только великим композитором! Если понадобится, Леопольд будет голодать и не спать по ночам. Но когда придет время, он потребует, чтобы сын вернул ему долги. Вольфганг стал поистине первым великим европейцем. Первым во всем. В детстве он был приглашен в Ватикан и обласкан самим Папой Римским. Повзрослев, попросил отставки у зальцбургского архиепископа и стал первым независимым музыкантом, самостоятельно зарабатывающим деньги на жизнь. С первых дней жизни в Вене Моцарт стал членом масонской ложи. Он бывал отвергнут публикой, но состоял в тайной переписке с королями. Его могила была разрыта, а череп украден. Гений в искусстве, в любви – один из нас, он с легкостью обнародовал чужие тайны. Но главную свою тайну - формулу счастья и бессмертия - навсегда унес с собой.
Доп. информация: Раздача производится папкой. В папке 2 (два) видеофайла
Сэмпл: http://multi-up.com/1082389
качество: IPTVRip
формат: AVI
Видео: 720x384 (1.88:1), 25 fps, XviD build 67 ~2006 kbps avg, 0.29 bit/pixel
Аудио: 48 kHz, AC3 Dolby Digital, 2/0 (L,R) Surround Encoded ch, ~192 kbps

MediaInfo

ОбщееПолное имя : E:\Pshichko66\Na zapis'\Документальные фильмы\Mocart\1 serija.aviФормат : AVIФормат/Информация : Audio Video InterleaveРазмер файла : 651 МбайтПродолжительность : 41 м.Общий поток : 2209 Кбит/секПрограмма кодирования : VirtualDubMod 1.5.10.2 (build 2540/release)Библиотека кодирования : VirtualDubMod build 2540/release
ВидеоИдентификатор : 0Формат : MPEG-4 VisualПрофиль формата : Advanced Simple@L5Параметр BVOP формата : 2Параметр QPel формата : НетПараметр GMC формата : Без точки переходаПараметр матрицы формата : ВыборочнаяИдентификатор кодека : XVIDИдентификатор кодека/Подсказка : XviDПродолжительность : 41 м.Битрейт : 2007 Кбит/секШирина : 720 пикселейВысота : 384 пикселяСоотношение сторон : 1,85:1Частота кадров : 25,000 кадров/секЦветовое пространство : YUVСубдискретизация насыщенности : 4:2:0Битовая глубина : 8 битТип развёртки : ПрогрессивнаяМетод сжатия : С потерямиБит/(Пиксели*Кадры) : 0.290Размер потока : 591 Мбайт (91%)Библиотека кодирования : XviD 67
АудиоИдентификатор : 1Формат : AC-3Формат/Информация : Audio Coding 3Профиль формата : Dolby DigitalРасширение режима : CM (complete main)Параметр Endianness формата : BigИдентификатор кодека : 2000Продолжительность : 41 м.Вид битрейта : ПостоянныйБитрейт : 192 Кбит/секКаналы : 2 каналаРасположение каналов : Front: L RЧастота : 48,0 КГцЧастота кадров : 31,250 кадров/сек (1536 spf)Метод сжатия : С потерямиРазмер потока : 56,6 Мбайт (9%)Выравнивание : Разделение по промежуткамПродолжительность промежутка : 40 мс. (1,00 видеокадр)Время предзагрузки промежутка : 500 мс.ОбщееПолное имя : E:\Pshichko66\Na zapis'\Документальные фильмы\Mocart\2 serija.aviФормат : AVIФормат/Информация : Audio Video InterleaveРазмер файла : 651 МбайтПродолжительность : 40 м.Общий поток : 2243 Кбит/секПрограмма кодирования : VirtualDubMod 1.5.10.2 (build 2540/release)Библиотека кодирования : VirtualDubMod build 2540/release
ВидеоИдентификатор : 0Формат : MPEG-4 VisualПрофиль формата : Advanced Simple@L5Параметр BVOP формата : 2Параметр QPel формата : НетПараметр GMC формата : Без точки переходаПараметр матрицы формата : ВыборочнаяИдентификатор кодека : XVIDИдентификатор кодека/Подсказка : XviDПродолжительность : 40 м.Битрейт : 2041 Кбит/секШирина : 720 пикселейВысота : 384 пикселяСоотношение сторон : 1,85:1Частота кадров : 25,000 кадров/секЦветовое пространство : YUVСубдискретизация насыщенности : 4:2:0Битовая глубина : 8 битТип развёртки : ПрогрессивнаяМетод сжатия : С потерямиБит/(Пиксели*Кадры) : 0.295Размер потока : 592 Мбайт (91%)Библиотека кодирования : XviD 67
АудиоИдентификатор : 1Формат : AC-3Формат/Информация : Audio Coding 3Профиль формата : Dolby DigitalРасширение режима : CM (complete main)Параметр Endianness формата : BigИдентификатор кодека : 2000Продолжительность : 40 м.Вид битрейта : ПостоянныйБитрейт : 192 Кбит/секКаналы : 2 каналаРасположение каналов : Front: L RЧастота : 48,0 КГцЧастота кадров : 31,250 кадров/сек (1536 spf)Метод сжатия : С потерямиРазмер потока : 55,7 Мбайт (9%)Выравнивание : Разделение по промежуткамПродолжительность промежутка : 40 мс. (1,00 видеокадр)Время предзагрузки промежутка : 500 мс.

Скриншоты

[teatrix.ru].t12557.torrent 
Торрент: Зарегистрирован [ 2016-01-04 21:20 ] · 8684C3D2CFE1B20C71302048DFCF617DCA25761D

Скачать .torrent

Скачать

13 KB

Статус: проверено
Скачан: 5 раз
Размер: 1.27 GB
terms.php



Быстрый ответ

Имя:

      
Для отправки сообщений необходимо включить JavaScript
Показать сообщения:    

Текущее время: 09-Дек 10:51

Часовой пояс: UTC + 3


Вы можете начинать темы
Вы можете отвечать на сообщения
Вы не можете редактировать свои сообщения
Вы не можете удалять свои сообщения
Вы не можете голосовать в опросах
Вы не можете прикреплять файлы к сообщениям
Вы можете скачивать файлы