(Piano) Жак Ибер - Пьесы для фортепиано / Jacques Ibert - Pieces pour Piano (Jean-Yves Sebillotte) - 2000, FLAC (tracks+.cue) lossless


 

[Цитировать]

Jacques Ibert - Pièces pour piano (Jean-Yves Sebillotte)
Жанр: Piano
Страна-производитель диска: France
Год издания диска: 2000
Издатель (лейбл): Quantum
Номер по каталогу: QM720
Дата записи: 2000
Аудиокодек: FLAC
Тип рипа: tracks+.cue
Битрейт аудио: lossless
Продолжительность: 68:39
Источник: скачано с
Наличие сканов в содержимом раздачи: да
Треклист:
Jacques Ibert (1890-1962)
1. Française, "guitare" pour piano (1926)
2. Le vent dans les ruines (1915)
Les Histoires (1922)
3. I - La meneuse de tortues d'or
4. II - Le petit âne blanc
5. III - Le vieux mendiant
6. IV - A giddy girl
7. V - Dans la maison triste
8. VI - Le palais abandonné
9. VII - Bajo la mesa
10. VIII - La cage de cristal
11. IX - La marchande d'eau fraîche
12. X - Le cortège de Balkis
13. Toccata sur le nom d'Albert Roussel (1929)
14. Valse, extrait de l'Éventail de Jeanne (1927)
15. L'espiègle du village de Lilliput (1937)
extrait de À l'Exposition pour l'album opus 37, de Marguerite Long
La "Petite Suite" en quinze images (1943)
16. I - Prélude
17. II - Ronde
18. III - Le gai vigneron
19. IV - Berceuse aux étoiles
20. V - Le cavalier sans souci
21. VI - Parade
22. VII - La promenade en traîneau
23. VIII - Romance
24. IX - Quadrille
25. X - Sérénade sur l'eau
26. XI - La machine à coudre
27. XII - L'Adieu
28. XIII - Les crocus
29. XIV - Premier Bal
30. XV - Danse du cocher
Les Rencontres (1923)
31. I - Les Bouquetières
32. II - Les Créoles
33. III - Les Mignardes
34. IV - Les Bergères
35. V - Les Bavardes
Исполнители:
Jean-Yves Sebillotte ‎- piano
Enregistré septembre 2000, Église Évangélique Luthérienne Saint-Pierre, Paris

Лог создания рипа

Exact Audio Copy V1.0 beta 6 from 9. April 2015
EAC extraction logfile from 16. May 2015, 3:40
Jacques Ibert / Pièces pour piano
Used drive : HL-DT-STDVDRAM GMA-4082N Adapter: 1 ID: 0
Read mode : SecureUtilize accurate stream : YesDefeat audio cache : YesMake use of C2 pointers : No
Read offset correction : 667Overread into Lead-In and Lead-Out : NoFill up missing offset samples with silence : YesDelete leading and trailing silent blocks : NoNull samples used in CRC calculations : YesUsed interface : Native Win32 interface for Win NT & 2000Gap handling : Appended to previous track
Used output format : User Defined EncoderSelected bitrate : 1024 kBit/sQuality : HighAdd ID3 tag : NoCommand line compressor : C:\Program Files (x86)\Exact Audio Copy\Flac\flac.exeAdditional command line options : -8 -V -T "ARTIST=%artist%" -T "TITLE=%title%" -T "ALBUM=%albumtitle%" -T "DATE=%year%" -T "TRACKNUMBER=%tracknr%" -T "GENRE=%genre%" -T "PERFORMER=%albuminterpret%" -T "COMPOSER=%composer%" %haslyrics%--tag-from-file=LYRICS="%lyricsfile%"%haslyrics% -T "ALBUMARTIST=%albumartist%" -T "DISCNUMBER=%cdnumber%" -T "TOTALDISCS=%totalcds%" -T "TOTALTRACKS=%numtracks%" -T "COMMENT=%comment%" %source% -o %dest%
TOC of the extracted CD
Track | Start | Length | Start sector | End sector --------------------------------------------------------- 1 | 0:00.00 | 2:49.60 | 0 | 12734 2 | 2:49.60 | 3:19.07 | 12735 | 27666 3 | 6:08.67 | 3:13.73 | 27667 | 42214 4 | 9:22.65 | 2:28.04 | 42215 | 53318 5 | 11:50.69 | 2:29.08 | 53319 | 64501 6 | 14:20.02 | 1:21.74 | 64502 | 70650 7 | 15:42.01 | 2:07.01 | 70651 | 80176 8 | 17:49.02 | 2:00.00 | 80177 | 89176 9 | 19:49.02 | 2:34.09 | 89177 | 100735 10 | 22:23.11 | 1:09.16 | 100736 | 105926 11 | 23:32.27 | 2:49.47 | 105927 | 118648 12 | 26:21.74 | 2:23.53 | 118649 | 129426 13 | 28:45.52 | 1:06.02 | 129427 | 134378 14 | 29:51.54 | 3:55.03 | 134379 | 152006 15 | 33:46.57 | 1:02.40 | 152007 | 156696 16 | 34:49.22 | 2:01.22 | 156697 | 165793 17 | 36:50.44 | 0:44.22 | 165794 | 169115 18 | 37:34.66 | 0:56.51 | 169116 | 173366 19 | 38:31.42 | 1:57.74 | 173367 | 182215 20 | 40:29.41 | 1:10.06 | 182216 | 187471 21 | 41:39.47 | 1:15.59 | 187472 | 193155 22 | 42:55.31 | 1:04.22 | 193156 | 197977 23 | 43:59.53 | 1:20.71 | 197978 | 204048 24 | 45:20.49 | 0:39.12 | 204049 | 206985 25 | 45:59.61 | 1:22.06 | 206986 | 213141 26 | 47:21.67 | 0:34.65 | 213142 | 215756 27 | 47:56.57 | 2:33.16 | 215757 | 227247 28 | 50:29.73 | 1:02.55 | 227248 | 231952 29 | 51:32.53 | 1:05.14 | 231953 | 236841 30 | 52:37.67 | 0:39.35 | 236842 | 239801 31 | 53:17.27 | 3:14.18 | 239802 | 254369 32 | 56:31.45 | 3:51.71 | 254370 | 271765 33 | 60:23.41 | 2:52.06 | 271766 | 284671 34 | 63:15.47 | 3:11.72 | 284672 | 299068 35 | 66:27.44 | 2:11.70 | 299069 | 308963
Track 1
Filename I:\Rips\Jacques Ibert - Pièces pour piano - 2000 (CD - FLAC - Lossless)\01 - Française, ''guitare'' pour piano.wav
Pre-gap length 0:00:02.00
Peak level 68.1 % Extraction speed 2.3 X Track quality 100.0 % Test CRC D4CCEAD4 Copy CRC D4CCEAD4 Accurately ripped (confidence 2) [8630928E] (AR v1) Copy OK
Track 2
Filename I:\Rips\Jacques Ibert - Pièces pour piano - 2000 (CD - FLAC - Lossless)\02 - Le vent dans les ruines.wav
Peak level 91.3 % Extraction speed 2.5 X Track quality 100.0 % Test CRC 81276C5E Copy CRC 81276C5E Accurately ripped (confidence 2) [6D13B5A5] (AR v1) Copy OK
Track 3
Filename I:\Rips\Jacques Ibert - Pièces pour piano - 2000 (CD - FLAC - Lossless)\03 - Les histoires - La meneuse de tortues d'or.wav
Peak level 32.2 % Extraction speed 2.7 X Track quality 100.0 % Test CRC 20D76E8E Copy CRC 20D76E8E Accurately ripped (confidence 2) [966ADDD8] (AR v1) Copy OK
Track 4
Filename I:\Rips\Jacques Ibert - Pièces pour piano - 2000 (CD - FLAC - Lossless)\04 - Les histoires - Le petit âne blanc.wav
Peak level 66.8 % Extraction speed 2.2 X Track quality 99.9 % Test CRC 37958421 Copy CRC 37958421 Accurately ripped (confidence 2) [BA44F9D2] (AR v1) Copy OK
Track 5
Filename I:\Rips\Jacques Ibert - Pièces pour piano - 2000 (CD - FLAC - Lossless)\05 - Les histoires - Le vieux mendiant.wav
Peak level 20.6 % Extraction speed 2.8 X Track quality 100.0 % Test CRC A7179189 Copy CRC A7179189 Accurately ripped (confidence 2) [AF6A7216] (AR v1) Copy OK
Track 6
Filename I:\Rips\Jacques Ibert - Pièces pour piano - 2000 (CD - FLAC - Lossless)\06 - Les histoires - A giddy girl.wav
Peak level 39.5 % Extraction speed 1.8 X Track quality 99.8 % Test CRC 65CD7B20 Copy CRC 65CD7B20 Accurately ripped (confidence 2) [17E1C958] (AR v1) Copy OK
Track 7
Filename I:\Rips\Jacques Ibert - Pièces pour piano - 2000 (CD - FLAC - Lossless)\07 - Les histoires - Dans la maison triste.wav
Peak level 22.9 % Extraction speed 2.8 X Track quality 100.0 % Test CRC 13BA781C Copy CRC 13BA781C Accurately ripped (confidence 2) [D275E74B] (AR v1) Copy OK
Track 8
Filename I:\Rips\Jacques Ibert - Pièces pour piano - 2000 (CD - FLAC - Lossless)\08 - Les histoires - Le palais abandonné.wav
Peak level 22.2 % Extraction speed 2.9 X Track quality 100.0 % Test CRC 938E7AEA Copy CRC 938E7AEA Accurately ripped (confidence 2) [019DE462] (AR v1) Copy OK
Track 9
Filename I:\Rips\Jacques Ibert - Pièces pour piano - 2000 (CD - FLAC - Lossless)\09 - Les histoires - Bajo la mesa.wav
Peak level 85.9 % Extraction speed 3.2 X Track quality 100.0 % Test CRC 0A0DC386 Copy CRC 0A0DC386 Accurately ripped (confidence 2) [487B7D29] (AR v1) Copy OK
Track 10
Filename I:\Rips\Jacques Ibert - Pièces pour piano - 2000 (CD - FLAC - Lossless)\10 - Les histoires - La cage de cristal.wav
Peak level 37.5 % Extraction speed 2.6 X Track quality 100.0 % Test CRC 380E69EB Copy CRC 380E69EB Accurately ripped (confidence 2) [8738FEEE] (AR v1) Copy OK
Track 11
Filename I:\Rips\Jacques Ibert - Pièces pour piano - 2000 (CD - FLAC - Lossless)\11 - Les histoires - La marchande d'eau fraîche.wav
Peak level 51.7 % Extraction speed 2.9 X Track quality 99.9 % Test CRC 036BBA19 Copy CRC 036BBA19 Accurately ripped (confidence 2) [F82796E1] (AR v1) Copy OK
Track 12
Filename I:\Rips\Jacques Ibert - Pièces pour piano - 2000 (CD - FLAC - Lossless)\12 - Les histoires - Le cortège de Balkis.wav
Peak level 48.0 % Extraction speed 3.3 X Track quality 100.0 % Test CRC E42DF0E2 Copy CRC E42DF0E2 Accurately ripped (confidence 2) [B8B744E0] (AR v1) Copy OK
Track 13
Filename I:\Rips\Jacques Ibert - Pièces pour piano - 2000 (CD - FLAC - Lossless)\13 - Toccata sur le nom d'Albert Roussel.wav
Peak level 69.4 % Extraction speed 2.7 X Track quality 100.0 % Test CRC B8520CBB Copy CRC B8520CBB Accurately ripped (confidence 2) [D1825DFA] (AR v1) Copy OK
Track 14
Filename I:\Rips\Jacques Ibert - Pièces pour piano - 2000 (CD - FLAC - Lossless)\14 - Valse (extrait de l'éventail de Jeanne).wav
Peak level 86.2 % Extraction speed 3.4 X Track quality 99.9 % Test CRC D257C6DD Copy CRC D257C6DD Accurately ripped (confidence 2) [1614E0EF] (AR v1) Copy OK
Track 15
Filename I:\Rips\Jacques Ibert - Pièces pour piano - 2000 (CD - FLAC - Lossless)\15 - L'espiègle au village de Lilliput.wav
Peak level 43.7 % Extraction speed 2.9 X Track quality 100.0 % Test CRC 3A664365 Copy CRC 3A664365 Accurately ripped (confidence 2) [146E650A] (AR v1) Copy OK
Track 16
Filename I:\Rips\Jacques Ibert - Pièces pour piano - 2000 (CD - FLAC - Lossless)\16 - La petite suite - Prélude.wav
Peak level 14.1 % Extraction speed 3.6 X Track quality 100.0 % Test CRC 0FB02312 Copy CRC 0FB02312 Accurately ripped (confidence 2) [0B8723AB] (AR v1) Copy OK
Track 17
Filename I:\Rips\Jacques Ibert - Pièces pour piano - 2000 (CD - FLAC - Lossless)\17 - La petite suite - Ronde.wav
Peak level 31.8 % Extraction speed 2.6 X Track quality 100.0 % Test CRC 80E6DF2B Copy CRC 80E6DF2B Accurately ripped (confidence 2) [DFA29193] (AR v1) Copy OK
Track 18
Filename I:\Rips\Jacques Ibert - Pièces pour piano - 2000 (CD - FLAC - Lossless)\18 - La petite suite - Le gai vigneron.wav
Peak level 32.3 % Extraction speed 2.7 X Track quality 100.0 % Test CRC 380D1C39 Copy CRC 380D1C39 Accurately ripped (confidence 2) [AF682457] (AR v1) Copy OK
Track 19
Filename I:\Rips\Jacques Ibert - Pièces pour piano - 2000 (CD - FLAC - Lossless)\19 - La petite suite - berceuse aux étoiles.wav
Peak level 12.0 % Extraction speed 3.7 X Track quality 100.0 % Test CRC 6BEF2647 Copy CRC 6BEF2647 Accurately ripped (confidence 2) [10A6557B] (AR v1) Copy OK
Track 20
Filename I:\Rips\Jacques Ibert - Pièces pour piano - 2000 (CD - FLAC - Lossless)\20 - La petite suite - Le cavalier sans souci.wav
Peak level 32.4 % Extraction speed 3.1 X Track quality 100.0 % Test CRC 7ECCDCD5 Copy CRC 7ECCDCD5 Accurately ripped (confidence 2) [17D7E9F6] (AR v1) Copy OK
Track 21
Filename I:\Rips\Jacques Ibert - Pièces pour piano - 2000 (CD - FLAC - Lossless)\21 - La petite suite - Parade.wav
Peak level 48.8 % Extraction speed 3.3 X Track quality 100.0 % Test CRC 9119B9CE Copy CRC 9119B9CE Accurately ripped (confidence 2) [5DEE1D7F] (AR v1) Copy OK
Track 22
Filename I:\Rips\Jacques Ibert - Pièces pour piano - 2000 (CD - FLAC - Lossless)\22 - La petite suite - La promenade en traîneau.wav
Peak level 38.9 % Extraction speed 3.0 X Track quality 100.0 % Test CRC A9CC393E Copy CRC A9CC393E Accurately ripped (confidence 2) [838B643F] (AR v1) Copy OK
Track 23
Filename I:\Rips\Jacques Ibert - Pièces pour piano - 2000 (CD - FLAC - Lossless)\23 - La petite suite - Romance.wav
Peak level 29.1 % Extraction speed 3.3 X Track quality 100.0 % Test CRC 94E7B5E8 Copy CRC 94E7B5E8 Accurately ripped (confidence 2) [252650D0] (AR v1) Copy OK
Track 24
Filename I:\Rips\Jacques Ibert - Pièces pour piano - 2000 (CD - FLAC - Lossless)\24 - La petite suite - Quadrille.wav
Peak level 54.5 % Extraction speed 1.7 X Track quality 99.7 % Test CRC 043C0019 Copy CRC 043C0019 Accurately ripped (confidence 2) [E485053E] (AR v1) Copy OK
Track 25
Filename I:\Rips\Jacques Ibert - Pièces pour piano - 2000 (CD - FLAC - Lossless)\25 - La petite suite - Sérénade sur l'eau.wav
Peak level 28.6 % Extraction speed 3.5 X Track quality 100.0 % Test CRC 76550557 Copy CRC 76550557 Accurately ripped (confidence 2) [90CB12C2] (AR v1) Copy OK
Track 26
Filename I:\Rips\Jacques Ibert - Pièces pour piano - 2000 (CD - FLAC - Lossless)\26 - La petite suite - La machine à coudre.wav
Peak level 32.3 % Extraction speed 1.5 X Track quality 99.6 % Test CRC 3E2ECC19 Copy CRC 3E2ECC19 Accurately ripped (confidence 2) [DC5A2343] (AR v1) Copy OK
Track 27
Filename I:\Rips\Jacques Ibert - Pièces pour piano - 2000 (CD - FLAC - Lossless)\27 - La petite suite - L'Adieu.wav
Peak level 19.1 % Extraction speed 4.1 X Track quality 100.0 % Test CRC 09A67839 Copy CRC 09A67839 Accurately ripped (confidence 2) [6C328287] (AR v1) Copy OK
Track 28
Filename I:\Rips\Jacques Ibert - Pièces pour piano - 2000 (CD - FLAC - Lossless)\28 - La petite suite - Les crocus.wav
Peak level 29.2 % Extraction speed 2.3 X Track quality 99.8 % Test CRC A64D3E09 Copy CRC A64D3E09 Accurately ripped (confidence 2) [673CC33E] (AR v1) Copy OK
Track 29
Filename I:\Rips\Jacques Ibert - Pièces pour piano - 2000 (CD - FLAC - Lossless)\29 - La petite suite - Premier bal.wav
Peak level 40.4 % Extraction speed 3.4 X Track quality 100.0 % Test CRC 6C724E69 Copy CRC 6C724E69 Accurately ripped (confidence 2) [111C0D8A] (AR v1) Copy OK
Track 30
Filename I:\Rips\Jacques Ibert - Pièces pour piano - 2000 (CD - FLAC - Lossless)\30 - La petite suite - Danse du cocher.wav
Peak level 87.0 % Extraction speed 2.6 X Track quality 100.0 % Test CRC D0FB15CB Copy CRC D0FB15CB Accurately ripped (confidence 2) [83592913] (AR v1) Copy OK
Track 31
Filename I:\Rips\Jacques Ibert - Pièces pour piano - 2000 (CD - FLAC - Lossless)\31 - Les rencontres - Les Bouquetières.wav
Peak level 71.2 % Extraction speed 4.5 X Track quality 100.0 % Test CRC 7BAF68A0 Copy CRC 7BAF68A0 Accurately ripped (confidence 1) [409D52F9] (AR v2) Copy OK
Track 32
Filename I:\Rips\Jacques Ibert - Pièces pour piano - 2000 (CD - FLAC - Lossless)\32 - Les rencontres - Les Créoles.wav
Peak level 52.3 % Extraction speed 4.7 X Track quality 100.0 % Test CRC FB737D64 Copy CRC FB737D64 Accurately ripped (confidence 2) [E38328FF] (AR v1) Copy OK
Track 33
Filename I:\Rips\Jacques Ibert - Pièces pour piano - 2000 (CD - FLAC - Lossless)\33 - Les rencontres - Les Mignardes.wav
Peak level 83.5 % Extraction speed 4.7 X Track quality 100.0 % Test CRC FC790229 Copy CRC FC790229 Accurately ripped (confidence 1) [D99C0BDF] (AR v1) Copy OK
Track 34
Filename I:\Rips\Jacques Ibert - Pièces pour piano - 2000 (CD - FLAC - Lossless)\34 - Les rencontres - Les Bergères.wav
Peak level 61.0 % Extraction speed 4.8 X Track quality 100.0 % Test CRC 9D3B2421 Copy CRC 9D3B2421 Accurately ripped (confidence 1) [11225B34] (AR v1) Copy OK
Track 35
Filename I:\Rips\Jacques Ibert - Pièces pour piano - 2000 (CD - FLAC - Lossless)\35 - Les rencontres - Les Bavardes.wav
Peak level 100.0 % Extraction speed 4.6 X Track quality 100.0 % Test CRC 29C3819D Copy CRC 29C3819D Accurately ripped (confidence 2) [02AA473F] (AR v1) Copy OK
All tracks accurately ripped
No errors occurred
End of status report
==== Log checksum 3237C0CCFCA8C3E89A77A7C2E60D2597B2480000CBA132D2ADDA98246FFB51D2 ====

Содержание индексной карты (.CUE)

REM GENRE ClassicalREM DATE 2000REM DISCID FC101723REM COMMENT "ExactAudioCopy v1.0b6"PERFORMER "Jacques Ibert"TITLE "Piиces pour piano"FILE "01 - Franзaise, ''guitare'' pour piano.wav" WAVE TRACK 01 AUDIO TITLE "Franзaise, 'guitare' pour piano" PERFORMER "Jacques Ibert" INDEX 01 00:00:00FILE "02 - Le vent dans les ruines.wav" WAVE TRACK 02 AUDIO TITLE "Le vent dans les ruines" PERFORMER "Jacques Ibert" INDEX 01 00:00:00FILE "03 - Les histoires - La meneuse de tortues d'or.wav" WAVE TRACK 03 AUDIO TITLE "Les histoires - La meneuse de tortues d'or" PERFORMER "Jacques Ibert" INDEX 01 00:00:00FILE "04 - Les histoires - Le petit вne blanc.wav" WAVE TRACK 04 AUDIO TITLE "Les histoires - Le petit вne blanc" PERFORMER "Jacques Ibert" INDEX 01 00:00:00FILE "05 - Les histoires - Le vieux mendiant.wav" WAVE TRACK 05 AUDIO TITLE "Les histoires - Le vieux mendiant" PERFORMER "Jacques Ibert" INDEX 01 00:00:00FILE "06 - Les histoires - A giddy girl.wav" WAVE TRACK 06 AUDIO TITLE "Les histoires - A giddy girl" PERFORMER "Jacques Ibert" INDEX 01 00:00:00FILE "07 - Les histoires - Dans la maison triste.wav" WAVE TRACK 07 AUDIO TITLE "Les histoires - Dans la maison triste" PERFORMER "Jacques Ibert" INDEX 01 00:00:00FILE "08 - Les histoires - Le palais abandonnй.wav" WAVE TRACK 08 AUDIO TITLE "Les histoires - Le palais abandonnй" PERFORMER "Jacques Ibert" INDEX 01 00:00:00FILE "09 - Les histoires - Bajo la mesa.wav" WAVE TRACK 09 AUDIO TITLE "Les histoires - Bajo la mesa" PERFORMER "Jacques Ibert" INDEX 01 00:00:00FILE "10 - Les histoires - La cage de cristal.wav" WAVE TRACK 10 AUDIO TITLE "Les histoires - La cage de cristal" PERFORMER "Jacques Ibert" INDEX 01 00:00:00FILE "11 - Les histoires - La marchande d'eau fraоche.wav" WAVE TRACK 11 AUDIO TITLE "Les histoires - La marchande d'eau fraоche" PERFORMER "Jacques Ibert" INDEX 01 00:00:00FILE "12 - Les histoires - Le cortиge de Balkis.wav" WAVE TRACK 12 AUDIO TITLE "Les histoires - Le cortиge de Balkis" PERFORMER "Jacques Ibert" INDEX 01 00:00:00FILE "13 - Toccata sur le nom d'Albert Roussel.wav" WAVE TRACK 13 AUDIO TITLE "Toccata sur le nom d'Albert Roussel" PERFORMER "Jacques Ibert" INDEX 01 00:00:00FILE "14 - Valse (extrait de l'йventail de Jeanne).wav" WAVE TRACK 14 AUDIO TITLE "Valse (extrait de l'йventail de Jeanne)" PERFORMER "Jacques Ibert" INDEX 01 00:00:00FILE "15 - L'espiиgle au village de Lilliput.wav" WAVE TRACK 15 AUDIO TITLE "L'espiиgle au village de Lilliput" PERFORMER "Jacques Ibert" INDEX 01 00:00:00FILE "16 - La petite suite - Prйlude.wav" WAVE TRACK 16 AUDIO TITLE "La petite suite - Prйlude" PERFORMER "Jacques Ibert" INDEX 01 00:00:00FILE "17 - La petite suite - Ronde.wav" WAVE TRACK 17 AUDIO TITLE "La petite suite - Ronde" PERFORMER "Jacques Ibert" INDEX 01 00:00:00FILE "18 - La petite suite - Le gai vigneron.wav" WAVE TRACK 18 AUDIO TITLE "La petite suite - Le gai vigneron" PERFORMER "Jacques Ibert" INDEX 01 00:00:00FILE "19 - La petite suite - berceuse aux йtoiles.wav" WAVE TRACK 19 AUDIO TITLE "La petite suite - berceuse aux йtoiles" PERFORMER "Jacques Ibert" INDEX 01 00:00:00FILE "20 - La petite suite - Le cavalier sans souci.wav" WAVE TRACK 20 AUDIO TITLE "La petite suite - Le cavalier sans souci" PERFORMER "Jacques Ibert" INDEX 01 00:00:00FILE "21 - La petite suite - Parade.wav" WAVE TRACK 21 AUDIO TITLE "La petite suite - Parade" PERFORMER "Jacques Ibert" INDEX 01 00:00:00FILE "22 - La petite suite - La promenade en traоneau.wav" WAVE TRACK 22 AUDIO TITLE "La petite suite - La promenade en traоneau" PERFORMER "Jacques Ibert" INDEX 01 00:00:00FILE "23 - La petite suite - Romance.wav" WAVE TRACK 23 AUDIO TITLE "La petite suite - Romance" PERFORMER "Jacques Ibert" INDEX 01 00:00:00FILE "24 - La petite suite - Quadrille.wav" WAVE TRACK 24 AUDIO TITLE "La petite suite - Quadrille" PERFORMER "Jacques Ibert" INDEX 01 00:00:00FILE "25 - La petite suite - Sйrйnade sur l'eau.wav" WAVE TRACK 25 AUDIO TITLE "La petite suite - Sйrйnade sur l'eau" PERFORMER "Jacques Ibert" INDEX 01 00:00:00FILE "26 - La petite suite - La machine а coudre.wav" WAVE TRACK 26 AUDIO TITLE "La petite suite - La machine а coudre" PERFORMER "Jacques Ibert" INDEX 01 00:00:00FILE "27 - La petite suite - L'Adieu.wav" WAVE TRACK 27 AUDIO TITLE "La petite suite - L'Adieu" PERFORMER "Jacques Ibert" INDEX 01 00:00:00FILE "28 - La petite suite - Les crocus.wav" WAVE TRACK 28 AUDIO TITLE "La petite suite - Les crocus" PERFORMER "Jacques Ibert" INDEX 01 00:00:00FILE "29 - La petite suite - Premier bal.wav" WAVE TRACK 29 AUDIO TITLE "La petite suite - Premier bal" PERFORMER "Jacques Ibert" INDEX 01 00:00:00FILE "30 - La petite suite - Danse du cocher.wav" WAVE TRACK 30 AUDIO TITLE "La petite suite - Danse du cocher" PERFORMER "Jacques Ibert" INDEX 01 00:00:00FILE "31 - Les rencontres - Les Bouquetiиres.wav" WAVE TRACK 31 AUDIO TITLE "Les rencontres - Les Bouquetiиres" PERFORMER "Jacques Ibert" INDEX 01 00:00:00FILE "32 - Les rencontres - Les Crйoles.wav" WAVE TRACK 32 AUDIO TITLE "Les rencontres - Les Crйoles" PERFORMER "Jacques Ibert" INDEX 01 00:00:00FILE "33 - Les rencontres - Les Mignardes.wav" WAVE TRACK 33 AUDIO TITLE "Les rencontres - Les Mignardes" PERFORMER "Jacques Ibert" INDEX 01 00:00:00FILE "34 - Les rencontres - Les Bergиres.wav" WAVE TRACK 34 AUDIO TITLE "Les rencontres - Les Bergиres" PERFORMER "Jacques Ibert" INDEX 01 00:00:00FILE "35 - Les rencontres - Les Bavardes.wav" WAVE TRACK 35 AUDIO TITLE "Les rencontres - Les Bavardes" PERFORMER "Jacques Ibert" INDEX 01 00:00:00
Доп. информация: В творчестве Жака Ибера сочетаются неоклассические и импрессионистские элементы: ясность и стройность формы, мелодическая свобода, гибкая ритмика, красочность гармоний. Стиль его фортепианных сочинений отмечен характерным французским шармом, и имеет много общего как с музыкой Дебюсси и Равеля, так и современников из "Шестёрки". В программе: фортепианный цикл "Истории" (1922) - одно из самых популярных сочинений композитора; Маленькая сюита в пятнадцати картинах (1943); "Встречи" (1924) и др. пьесы.
Жан Ив Себийот - штатный пианист Парижской оперы, успешно совмещающий должностные обязанности с концертами, турами (часто в содружестве с коллегами и друзьями из оркестра), а также записавший несколько сольных дисков, среди которых фортепианные миниатюры Жака Ибера.

О диске

Открывает диск Франсез 'Guitarre' (1926) первоначально написанная для гитары, как это видно из названия. Пьеса "Ветер над руинами" (1915) написана в Шампани, во время военной службы Ибера под впечатлением "Ветра на равнине" Дебюсси.
Фортепианный цикл "Истории" (1922) - своего рода "Детский уголок" Ибера и влияние Дебюсси здесь определённо чувствуется. 1я пьеса - "Дрессировщица золотых черепах" - выполняет роль вступления. 2я - знаменитый "Маленький белый ослик". 3я пьеса - печальный "Нищий старик" обеспечивает контраст настроения. 4ю пьесу - "Легкомысленная девушка" Ибер описывает как английский сентиментальный роман. В 5й пьесе - "Дом грусти" звучат жалобные мелодии. 6я - таинственный "Заброшенный дворец". 7я с испанским названием Badgo La Mesa ("Под столом") напоминает де Фалью. 8я - полная птичьего щебета "Стеклянная клетка". 9я в духе токкаты - "Продавец воды". И завершает цикл бодрое "Шествие Балкис".
"Токката на имя Альбер Руссель" (1929) - дань выдающемуся французскому композитору. Вальс (1927) - написан специально для коллективного балета "Веер Жанны". "Шутник в деревне лилипутов " (1937) - посвящение пианистке Маргарит Лонг.
Маленькая сюита в пятнадцати картинах (1943) начинается с Прелюдии, затем следует Рондо. Следующие пьесы носят программные названия - "Виноградарь"; "Колыбельная под звездами"; "Беззаботный рыцарь" ; "Парад". Седьмая часть - "Катание на санях". "Романс" напоминает о Шумане, "Кадриль" - о мюзик-холле. Далее следуют нежная "Серенада на воде", гудящая "Швейная машинка", меланхоличное "Прощание", очаровательный "Крокус" и синкопированный маленький вальс - "Первый бал". Сюита заканчивается веселым "Танцем извозчика".
"Встречи" - маленькая сюита в форме балета (1923) написана для постановки с участием Нижинского. Ибер здесь со свойственным ему элегантным юмором живо и красочно отобразил особенности некоторых персонажей: 1. Цветочницы 2. Креолы. 3. Прекрасные девушки 4. Пастушки и 5. Болтуны.



Показать сообщения:    

Текущее время: 09-Дек 22:23

Часовой пояс: UTC + 3


Вы не можете начинать темы
Вы не можете отвечать на сообщения
Вы не можете редактировать свои сообщения
Вы не можете удалять свои сообщения
Вы не можете голосовать в опросах
Вы не можете прикреплять файлы к сообщениям
Вы не можете скачивать файлы