(Classical) Franz Schubert — Piano Sonatas № 15 & 19 (D 840 & 958) • German Dances D 783 Op 33 (Alfred Brendel) — 2009, APE (image+.cue) lossless


 

[Цитировать]

Piano Sonatas № 15 & 19 (D 840 & 958) • German Dances D 783 Op 33-
Жанр: Classical
Страна-производитель диска: США
Издатель (лейбл): Alto
Номер по каталогу: ALC 1040
Год издания диска: January, 13, 2009
Год записи фонограммы: 1968 (Wienna)
Композитор: Franz Schubert
Исполнитель: Alfred Brendel
Аудио кодек: ape
Тип рипа: image+.cue
Битрейт аудио: lossless
Продолжительность: 00h59'47"
Источник: web
Наличие сканов в содержимом раздачи: нет-Треклист:
(01-04) Piano Sonata № 19 c-moll D 958 [28'59"]
(05-06) Piano Sonata № 15 C-Dur D 840 «Reliquie» [20'03"]
(07-22) German Dances D 783 Op 33 [10'45"]
-

CUE

REM GENRE "Classical"
REM DATE "2009"
PERFORMER "Schubert"
TITLE "Piano Sonatas German Dances"
FILE "Piano Sonatas German Dances.ape" WAVE
  TRACK 01 AUDIO
    TITLE "Piano Sonata № 19 c-moll D958 – I. Allegro"
    PERFORMER "Schubert"
    INDEX 01 00:00:00
  TRACK 02 AUDIO
    TITLE "Piano Sonata № 19 c-moll D958 – II. Adagio"
    PERFORMER "Schubert"
    INDEX 01 08:03:08
  TRACK 03 AUDIO
    TITLE "Piano Sonata № 19 c-moll D958 – III. Menuetto & Trio, Allegro"
    PERFORMER "Schubert"
    INDEX 01 16:18:55
  TRACK 04 AUDIO
    TITLE "Piano Sonata № 19 c-moll D958 – IV. Allegro"
    PERFORMER "Schubert"
    INDEX 01 19:51:10
  TRACK 05 AUDIO
    TITLE "Piano Sonata № 15 C-Dur D840 «Reliquie» – I. Moderato"
    PERFORMER "Schubert"
    INDEX 01 28:59:30
  TRACK 06 AUDIO
    TITLE "Piano Sonata № 15 C-Dur D840 «Reliquie» – II. Andante"
    PERFORMER "Schubert"
    INDEX 01 39:38:18
  TRACK 07 AUDIO
    TITLE "German Dances D783 Op 33 – I. № 1 A-Dur"
    PERFORMER "Schubert"
    INDEX 01 49:02:30
  TRACK 08 AUDIO
    TITLE "German Dances D783 Op 33 – II. № 2 D-Dur"
    PERFORMER "Schubert"
    INDEX 01 49:49:35
  TRACK 09 AUDIO
    TITLE "German Dances D783 Op 33 – III. № 3 B-Dur"
    PERFORMER "Schubert"
    INDEX 01 50:51:53
  TRACK 10 AUDIO
    TITLE "German Dances D783 Op 33 – IV. № 4 G-Dur"
    PERFORMER "Schubert"
    INDEX 01 51:23:30
  TRACK 11 AUDIO
    TITLE "German Dances D783 Op 33 – V. № 5 D-Dur"
    PERFORMER "Schubert"
    INDEX 01 51:57:58
  TRACK 12 AUDIO
    TITLE "German Dances D783 Op 33 – VII. № 7 B-Dur"
    PERFORMER "Schubert"
    INDEX 01 52:37:68
  TRACK 13 AUDIO
    TITLE "German Dances D783 Op 33 – VIII. № 8 Es-Dur"
    PERFORMER "Schubert"
    INDEX 01 53:37:45
  TRACK 14 AUDIO
    TITLE "German Dances D783 Op 33 – XIII. № 13 C-Dur"
    PERFORMER "Schubert"
    INDEX 01 54:06:18
  TRACK 15 AUDIO
    TITLE "German Dances D783 Op 33 – XIV. № 14 As-Dur"
    PERFORMER "Schubert"
    INDEX 01 54:43:55
  TRACK 16 AUDIO
    TITLE "German Dances D783 Op 33 – IX. № 9 C-Dur"
    PERFORMER "Schubert"
    INDEX 01 55:24:18
  TRACK 17 AUDIO
    TITLE "German Dances D783 Op 33 – X. № 10 a-moll"
    PERFORMER "Schubert"
    INDEX 01 55:49:73
  TRACK 18 AUDIO
    TITLE "German Dances D783 Op 33 – XI. № 11 G-Dur"
    INDEX 01 57:00:68
  TRACK 19 AUDIO
    TITLE "German Dances D783 Op 33 – XII. № 12 C-Dur"
    PERFORMER "Schubert"
    INDEX 01 57:26:70
  TRACK 20 AUDIO
    TITLE "German Dances D783 Op 33 – XV. № 15 f-moll"
    PERFORMER "Schubert"
    INDEX 01 57:54:63
  TRACK 21 AUDIO
    TITLE "German Dances D783 Op 33 – XVI. № 16 As-Dur"
    PERFORMER "Schubert"
    INDEX 01 58:42:43
  TRACK 22 AUDIO
    TITLE "German Dances D783 Op 33 – VI. № 6 B-Dur"
    PERFORMER "Schubert"
    INDEX 01 59:12:55

-

auCDtect log

-----------------------
DON'T MODIFY THIS FILE
-----------------------
PERFORMER: auCDtect Task Manager, ver. 1.5.1RC4 build 1.5.1.5
Copyright (c) 2008-2010 y-soft. All rights reserved
http://y-soft.org
ANALYZER: auCDtect: CD records authenticity detector, version 0.8.2
Copyright (c) 2004 Oleg Berngardt. All rights reserved.
Copyright (c) 2004 Alexander Djourik. All rights reserved.
FILE: Piano Sonatas German Dances.wav
  Size: 632812700 Hash: 9DAD17B01285335DA4CAFF6D22516B4E Accuracy: -m0
  Conclusion: CDDA 100%
  Signature: 59390447D6C943A73DC548D121A4E393CDEE09EF

-

Spectrogram

-



Показать сообщения:    

Текущее время: 09-Дек 01:01

Часовой пояс: UTC + 3


Вы не можете начинать темы
Вы не можете отвечать на сообщения
Вы не можете редактировать свои сообщения
Вы не можете удалять свои сообщения
Вы не можете голосовать в опросах
Вы не можете прикреплять файлы к сообщениям
Вы не можете скачивать файлы