(Classical) Johann Sebastian Bach · Sonatas & Partitas, Vol. 1 (Chris Thile) · 2013, FLAC (tracks+.cue) lossless


 

[Цитировать]

Johann Sebastian Bach
Sonatas & Partitas, Vol. 1

Жанр: classical
Страна-производитель диска: USA
Год издания диска: 2013
Издатель: Nonesuch
Номер по каталогу: 535360-2
Дата записи: 6 августа 2013
Аудиокодек: FLAC
Тип рипа: tracks+.cue
Битрейт аудио: lossless
Продолжительность: 01:04:10
Источник: скачано с waffles.fm
Буклет в содержимом раздачи отсутствует
Исполнитель: Chris Thile (mandolin)

Треклист

Sonata No. 1 in G Minor, BWV 1001
01. I. Adagio (3:58)
02. II. Fuga: Allegro (4:17)
03. III. Siciliana (3:13)
04. IV. Presto (3:22)
Partita No. 1 in B Minor, BWV 1002
05. I. Allemanda (5:15)
06. II. Double (4:58)
07. III. Corrente (2:50)
08. IV. Double: Presto (2:56)
09. V. Sarabande (2:40)
10. VI. Double (2:40)
11. VII. Tempo Di Borea (2:43)
12. VIII. Double (2:44)
Sonata No. 2 in A Minor, BWV 1003
13. I. Grave (4:46)
14. II. Fuga (6:43)
15. III. Andante (5:42)
16. IV. Allegro (5:24)

Лог создания рипа

Exact Audio Copy V1.0 beta 4 from 7. December 2014
EAC extraction logfile from 13. March 2015, 1:09
Chris Thile / Bach: Sonatas and Partitas, Vol. 1
Used drive : hp BD CMB UJ162 Adapter: 1 ID: 0
Read mode : SecureUtilize accurate stream : YesDefeat audio cache : YesMake use of C2 pointers : No
Read offset correction : 103Overread into Lead-In and Lead-Out : NoFill up missing offset samples with silence : YesDelete leading and trailing silent blocks : NoNull samples used in CRC calculations : YesUsed interface : Native Win32 interface for Win NT & 2000Gap handling : Appended to previous track
Used output format : User Defined EncoderSelected bitrate : 1024 kBit/sQuality : HighAdd ID3 tag : NoCommand line compressor : C:\Program Files (x86)\Exact Audio Copy\Flac\flac.exeAdditional command line options : -8 -V -T "artist=%artist%" -T "title=%title%" -T "album=%albumtitle%" -T "date=%year%" -T "tracknumber=%tracknr%" -T "genre=%genre%" %source%
TOC of the extracted CD
Track | Start | Length | Start sector | End sector --------------------------------------------------------- 1 | 0:00.00 | 3:57.63 | 0 | 17837 2 | 3:57.63 | 4:16.58 | 17838 | 37095 3 | 8:14.46 | 3:12.56 | 37096 | 51551 4 | 11:27.27 | 3:21.55 | 51552 | 66681 5 | 14:49.07 | 5:14.56 | 66682 | 90287 6 | 20:03.63 | 4:57.47 | 90288 | 112609 7 | 25:01.35 | 2:50.28 | 112610 | 125387 8 | 27:51.63 | 2:55.71 | 125388 | 138583 9 | 30:47.59 | 2:40.19 | 138584 | 150602 10 | 33:28.03 | 2:39.59 | 150603 | 162586 11 | 36:07.62 | 2:42.53 | 162587 | 174789 12 | 38:50.40 | 2:44.26 | 174790 | 187115 13 | 41:34.66 | 4:46.15 | 187116 | 208580 14 | 46:21.06 | 6:42.71 | 208581 | 238801 15 | 53:04.02 | 5:42.34 | 238802 | 264485 16 | 58:46.36 | 5:23.47 | 264486 | 288757
Track 1
Filename C:\EAC Rips\01 - Sonata No. 1 in G Minor, I. Adagio.wav
Pre-gap length 0:00:02.00
Peak level 52.9 % Extraction speed 2.6 X Track quality 100.0 % Test CRC 7F884955 Copy CRC 7F884955 Accurately ripped (confidence 30) [9FC67974] (AR v2) Copy OK
Track 2
Filename C:\EAC Rips\02 - Sonata No. 1 in G Minor, II. Fuga- Allegro.wav
Peak level 99.2 % Extraction speed 2.9 X Track quality 100.0 % Test CRC A5641ED7 Copy CRC A5641ED7 Accurately ripped (confidence 30) [8B3F779D] (AR v2) Copy OK
Track 3
Filename C:\EAC Rips\03 - Sonata No. 1 in G Minor, III. Siciliana.wav
Peak level 33.2 % Extraction speed 3.0 X Track quality 100.0 % Test CRC 6D40A881 Copy CRC 6D40A881 Accurately ripped (confidence 30) [4E16B757] (AR v2) Copy OK
Track 4
Filename C:\EAC Rips\04 - Sonata No. 1 in G Minor, IV. Presto.wav
Peak level 96.1 % Extraction speed 3.2 X Track quality 100.0 % Test CRC 65AB7778 Copy CRC 65AB7778 Accurately ripped (confidence 30) [727224E3] (AR v2) Copy OK
Track 5
Filename C:\EAC Rips\05 - Partita No. 1 in B Minor, I. Allemanda.wav
Pre-gap length 0:00:04.36
Peak level 68.8 % Extraction speed 2.8 X Track quality 99.9 % Test CRC 3F03BCDE Copy CRC 3F03BCDE Accurately ripped (confidence 30) [CECD7993] (AR v2) Copy OK
Track 6
Filename C:\EAC Rips\06 - Partita No. 1 in B Minor, II. Double.wav
Peak level 63.7 % Extraction speed 3.8 X Track quality 100.0 % Test CRC 69D5CD91 Copy CRC 69D5CD91 Accurately ripped (confidence 30) [4E5D737D] (AR v2) Copy OK
Track 7
Filename C:\EAC Rips\07 - Partita No. 1 in B Minor, III. Corrente.wav
Peak level 66.2 % Extraction speed 3.7 X Track quality 100.0 % Test CRC 0CF82BFB Copy CRC 0CF82BFB Accurately ripped (confidence 30) [EBF1DA5A] (AR v2) Copy OK
Track 8
Filename C:\EAC Rips\08 - Partita No. 1 in B Minor, IV. Double- Presto.wav
Peak level 59.7 % Extraction speed 2.6 X Track quality 99.9 % Test CRC DCF64BB0 Copy CRC DCF64BB0 Accurately ripped (confidence 30) [F0BC476C] (AR v2) Copy OK
Track 9
Filename C:\EAC Rips\09 - Partita No. 1 in B Minor, V. Sarabande.wav
Peak level 38.2 % Extraction speed 3.9 X Track quality 100.0 % Test CRC ABA2701F Copy CRC ABA2701F Accurately ripped (confidence 30) [782DBE34] (AR v2) Copy OK
Track 10
Filename C:\EAC Rips\10 - Partita No. 1 in B Minor, VI. Double.wav
Peak level 58.4 % Extraction speed 3.9 X Track quality 100.0 % Test CRC 86ACC7C3 Copy CRC 86ACC7C3 Accurately ripped (confidence 30) [3FCD42B6] (AR v2) Copy OK
Track 11
Filename C:\EAC Rips\11 - Partita No. 1 in B Minor, VII. Tempo Di Borea.wav
Peak level 92.8 % Extraction speed 4.0 X Track quality 100.0 % Test CRC F66D3BE3 Copy CRC F66D3BE3 Accurately ripped (confidence 30) [C6CBFF7F] (AR v2) Copy OK
Track 12
Filename C:\EAC Rips\12 - Partita No. 1 in B Minor, VIII. Double.wav
Peak level 73.9 % Extraction speed 2.8 X Track quality 99.9 % Test CRC C0F23E9C Copy CRC C0F23E9C Accurately ripped (confidence 30) [699A0C58] (AR v2) Copy OK
Track 13
Filename C:\EAC Rips\13 - Sonata No. 2 in A Minor, I. Grave.wav
Pre-gap length 0:00:05.16
Peak level 38.0 % Extraction speed 4.7 X Track quality 100.0 % Test CRC A8AA06C3 Copy CRC A8AA06C3 Accurately ripped (confidence 30) [C0237A2F] (AR v2) Copy OK
Track 14
Filename C:\EAC Rips\14 - Sonata No. 2 in A Minor, II. Fuga.wav
Peak level 99.1 % Extraction speed 5.0 X Track quality 100.0 % Test CRC E402A701 Copy CRC E402A701 Accurately ripped (confidence 29) [9A6B9CA7] (AR v2) Copy OK
Track 15
Filename C:\EAC Rips\15 - Sonata No. 2 in A Minor, III. Andante.wav
Peak level 54.1 % Extraction speed 5.1 X Track quality 100.0 % Test CRC 7AEAD2C6 Copy CRC 7AEAD2C6 Accurately ripped (confidence 30) [669F22DB] (AR v2) Copy OK
Track 16
Filename C:\EAC Rips\16 - Sonata No. 2 in A Minor, IV. Allegro.wav
Peak level 99.0 % Extraction speed 5.3 X Track quality 100.0 % Test CRC D07067B6 Copy CRC D07067B6 Accurately ripped (confidence 30) [8347E8E0] (AR v2) Copy OK
All tracks accurately ripped
No errors occurred
End of status report
---- CUETools DB Plugin V2.1.4
[CTDB TOCID: hOn9vNDBfiJLZxA6bn_4p3HA0Pc-] foundSubmit result: hOn9vNDBfiJLZxA6bn_4p3HA0Pc- has been confirmedTrack | CTDB Status 1 | (20/20) Accurately ripped 2 | (20/20) Accurately ripped 3 | (20/20) Accurately ripped 4 | (20/20) Accurately ripped 5 | (20/20) Accurately ripped 6 | (20/20) Accurately ripped 7 | (20/20) Accurately ripped 8 | (20/20) Accurately ripped 9 | (20/20) Accurately ripped 10 | (20/20) Accurately ripped 11 | (20/20) Accurately ripped 12 | (20/20) Accurately ripped 13 | (19/20) Accurately ripped 14 | (18/20) Accurately ripped 15 | (20/20) Accurately ripped 16 | (19/20) Accurately ripped
==== Log checksum 9D94C84D16D37BB657FA111E23CD0CECBC80C4E208EDECC73F8E959E71590FC7 ====

Содержание индексной карты (.CUE)

REM DATE 2013REM DISCID F00F0A10REM COMMENT "ExactAudioCopy v1.0b4"CATALOG 0075597958645PERFORMER "Chris Thile"TITLE "Bach: Sonatas & Partitas, Vol. 1"FILE "01. Sonata No. 1 in G Minor, BWV 1001 · I. Adagio.wav" WAVE TRACK 01 AUDIO TITLE "I. Adagio" PERFORMER "Chris Thile" ISRC USNO11300316 INDEX 01 00:00:00FILE "02. Sonata No. 1 in G Minor, BWV 1001 · II. Fuga (Allegro).wav" WAVE TRACK 02 AUDIO TITLE "II. Fuga (Allegro)" PERFORMER "Chris Thile" ISRC USNO11300317 INDEX 01 00:00:00FILE "03. Sonata No. 1 in G Minor, BWV 1001 · III. Siciliana.wav" WAVE TRACK 03 AUDIO TITLE "III. Siciliana" PERFORMER "Chris Thile" ISRC USNO11300318 INDEX 01 00:00:00FILE "04. Sonata No. 1 in G Minor, BWV 1001 · IV. Presto.wav" WAVE TRACK 04 AUDIO TITLE "IV. Presto" PERFORMER "Chris Thile" ISRC USNO11300319 INDEX 01 00:00:00 TRACK 05 AUDIO TITLE "I. Allemanda" PERFORMER "Chris Thile" ISRC USNO11300320 INDEX 00 03:17:19FILE "05. Partita No. 1 in B Minor, BWV 1002 · I. Allemanda.wav" WAVE INDEX 01 00:00:00FILE "06. Partita No. 1 in B Minor, BWV 1002 · II. Double.wav" WAVE TRACK 06 AUDIO TITLE "II. Double" PERFORMER "Chris Thile" ISRC USNO11300321 INDEX 01 00:00:00FILE "07. Partita No. 1 in B Minor, BWV 1002 · III. Corrente.wav" WAVE TRACK 07 AUDIO TITLE "III. Corrente" PERFORMER "Chris Thile" ISRC USNO11300322 INDEX 01 00:00:00FILE "08. Partita No. 1 in B Minor, BWV 1002 · IV. Double (Presto).wav" WAVE TRACK 08 AUDIO TITLE "IV. Double (Presto)" PERFORMER "Chris Thile" ISRC USNO11300323 INDEX 01 00:00:00FILE "09. Partita No. 1 in B Minor, BWV 1002 · V. Sarabande.wav" WAVE TRACK 09 AUDIO TITLE "V. Sarabande" PERFORMER "Chris Thile" ISRC USNO11300324 INDEX 01 00:00:00FILE "10. Partita No. 1 in B Minor, BWV 1002 · VI. Double.wav" WAVE TRACK 10 AUDIO TITLE "VI. Double" PERFORMER "Chris Thile" ISRC USNO11300325 INDEX 01 00:00:00FILE "11. Partita No. 1 in B Minor, BWV 1002 · VII. Tempo Di Borea.wav" WAVE TRACK 11 AUDIO TITLE "VII. Tempo Di Borea" PERFORMER "Chris Thile" ISRC USNO11300326 INDEX 01 00:00:00FILE "12. Partita No. 1 in B Minor, BWV 1002 · VIII. Double.wav" WAVE TRACK 12 AUDIO TITLE "VIII. Double" PERFORMER "Chris Thile" ISRC USNO11300327 INDEX 01 00:00:00 TRACK 13 AUDIO TITLE "I. Grave" PERFORMER "Chris Thile" ISRC USNO11300328 INDEX 00 02:39:10FILE "13. Sonata No. 2 in A minor, BWV 1003 · I. Grave.wav" WAVE INDEX 01 00:00:00FILE "14. Sonata No. 2 in A minor, BWV 1003 · II. Fuga.wav" WAVE TRACK 14 AUDIO TITLE "II. Fuga" PERFORMER "Chris Thile" ISRC USNO11300329 INDEX 01 00:00:00FILE "15. Sonata No. 2 in A minor, BWV 1003 · III. Andante.wav" WAVE TRACK 15 AUDIO TITLE "III. Andante" PERFORMER "Chris Thile" ISRC USNO11300330 INDEX 01 00:00:00FILE "16. Sonata No. 2 in A minor, BWV 1003 · IV. Allegro.wav" WAVE TRACK 16 AUDIO TITLE "IV. Allegro" PERFORMER "Chris Thile" ISRC USNO11300331 INDEX 01 00:00:00



Показать сообщения:    

Текущее время: 10-Дек 02:16

Часовой пояс: UTC + 3


Вы не можете начинать темы
Вы не можете отвечать на сообщения
Вы не можете редактировать свои сообщения
Вы не можете удалять свои сообщения
Вы не можете голосовать в опросах
Вы не можете прикреплять файлы к сообщениям
Вы не можете скачивать файлы