(Classical) [LP] [24/96] W. A. Mozart/ В. А. Моцарт - Symphonies Nos. 11 And 54. Divertimento No. 3 (Moscow Chamber Orchestra, Cond. R. Barshai/Московский камерный оркестр, дир. Р. Баршай) - 1978, FLAC (image+.cue)


Статистика раздачи [Обновить пиров]
Размер:  800 MB   |    Зарегистрирован:  11 месяцев 3 дня   |    Скачан:  0 раз

Полного источника не было: Никогда

 
   
 
 
 

[Цитировать]

В. А. Моцарт / Wolfgang Amadeus Mozart - Симфонии ре мажор, К. 81, соч1770г., Си бемоль мажор, К. Anh. 216, соч. 1771г.,
Дивертисмент №3 Для струнного оркестра фа мажор, К. 138
Московский камерный оркестр. Дирижёр Р. Баршай

Жанр: Classical
Носитель: LP
Год выпуска: 1978
Лейбл: Мелодия – 33 C 0765—66
Страна-производитель: USSR
Аудио кодек: FLAC
Тип рипа: image+.cue
Формат записи: 24/192
Формат раздачи: 24/96
Продолжительность: 00:44:12
Тэги в .cue: прописаны
Источник оцифровки: автором раздачи
Код класса состояния винила: VG
Устройство воспроизведения: Электроника ЭП 017С
Головка звукоснимателя: ГЗМ – 028 (Корвет)
Предварительный усилитель: AMX - 100 (LTO®)
АЦП: Juli@
Программа-оцифровщик: Adobe Audition CS6 5.0.2.
Обработка: удаление артефактов

Трэклист:


W. A. Mozart
Symphony No. 11 In D Major, K 84
A1 1. Allegro
A2 2. Andante
A3 3. Allegro Molto
Symphony No. 54 In B Flat Major, K Anh. 216
A4 1. Allegro
A5 2. Andante
B1 3. Menuetto
B2 4. Allegro Molto
Divertimento No. 3 In F Major, K. 138
B3 1. Allegro
B4 2. Andante
B5 3. Presto
Moscow Chamber Orchestra , Conductor Rudolf Barshai
[spoiler="Уровень записи, спектр, АЧХ:">

Наклейки: [spoiler="Уровень записи, спектр, АЧХ:

.cue txt:"]
REM GENRE ClassicalREM DATE 1978REM COMMENT Vinyl, LP, Repress, Мелодия – 33 C 0765—66, USSRTITLE Mozart - Symphonies Nos. 11 And 54. Divertimento No. 3PERFORMER Moscow Chamber Orchestra, Conductor Rudolf BarshaiFILE "01. Mozart - Symphonies Nos. 11 And 54. Divertimento No. 3 - Side 1.flac" WAVE TRACK 01 AUDIO TITLE "A1 1. Allegro (Symphony No. 11 In D Major, K 84)" INDEX 01 00:00:00 TRACK 02 AUDIO TITLE "A2 2. Andante (Symphony No. 11 In D Major, K 84)" INDEX 01 03:39:39 TRACK 03 AUDIO TITLE "A3 3. Allegro Molto (Symphony No. 11 In D Major, K 84)" INDEX 01 09:52:37 TRACK 04 AUDIO TITLE "A4 1. Allegro (Symphony No. 54 In B Flat Major, K Anh. 216)" INDEX 01 12:56:36 TRACK 05 AUDIO TITLE "A5 2. Andante (Symphony No. 54 In B Flat Major, K Anh. 216)" INDEX 01 16:45:01FILE "02. Mozart - Symphonies Nos. 11 And 54. Divertimento No. 3 - Side 2.flac" WAVE TRACK 06 AUDIO TITLE "B1 3. Menuetto (Symphony No. 54 In B Flat Major, K Anh. 216)" INDEX 01 00:00:00 TRACK 07 AUDIO TITLE "B2 4. Allegro Molto (Symphony No. 54 In B Flat Major, K Anh. 216)" INDEX 01 02:54:21 TRACK 08 AUDIO TITLE "B3 1. Allegro (Divertimento No. 3 In F Major, K. 138)" INDEX 01 07:15:68 TRACK 09 AUDIO TITLE "B4 2. Andante (Divertimento No. 3 In F Major, K. 138)" INDEX 01 13:11:65 TRACK 10 AUDIO TITLE "B5 3. Presto (Divertimento No. 3 In F Major, K. 138)" INDEX 01 18:22:34
[teatrix.ru].t12563.torrent 
Торрент: Зарегистрирован [ 2016-01-04 21:20 ] · C696325BD75CDACEA8D08D684FAA9716D80B18F8

Скачать .torrent

Скачать

16 KB

Статус: проверено
Скачан: 0 раз
Размер: 800 MB
terms.php



Быстрый ответ

Имя:

      
Для отправки сообщений необходимо включить JavaScript
Показать сообщения:    

Текущее время: 08-Дек 17:22

Часовой пояс: UTC + 3


Вы можете начинать темы
Вы можете отвечать на сообщения
Вы не можете редактировать свои сообщения
Вы не можете удалять свои сообщения
Вы не можете голосовать в опросах
Вы не можете прикреплять файлы к сообщениям
Вы можете скачивать файлы