[TR24][OF] Brahms: String Quartets Nos. 1 & 3 (Artemis Quartet) - 2015 (Classical/Chamber/Quartet)


Статистика раздачи [Обновить пиров]
Размер:  1.18 GB   |    Зарегистрирован:  11 месяцев 5 дней   |    Скачан:  1 раз

Полного источника не было: 27 дней

 
   
 
 
 

[Цитировать]

Artemis Quartet
Johannes Brahms: String Quartets Nos. 1 & 3-Дата записи: 06.2014 • Год издания: 2015 • Длительность: 01:08:21
Жанр: Classical/Chamber/Quartet • Лейбл: Erato: 2564612663
Битрейт: lossless • Разрядность: 24/96 • Контейнер: FLAC
Источник: WEBСканы: Digital booklet
-01-04. String Quartet No. 1 in C Minor, Op. 51
I. Allegro |10:21| II. Romanze - Poco adagio |6:48| III. Allegretto molto moderato e comodo |8:44| IV. Allegro |6:18|
05-08. String Quartet No. 3 in B-Flat Major, Op. 67
I. Vivace |10:27| II. Andante |7:10| III. Agitato (Allegretto non troppo) - Trio - Coda |8:12| IV. Poco Allegretto con Variazioni |10:21|
-Artemis Quartet:
Vineta Sareika, violin | Gregor Sigl, violin | Friedemann Weigle, viola | Eckart Runge, cello-Об исполнителе:-Об альбоме:-

Лог проверки качества

foobar2000 1.3.9 / Замер динамического диапазона (DR) 1.1.1
Дата отчёта: 2016-01-04 15:01:06
--------------------------------------------------------------------------------
Анализ: Quatuor Artemis / Brahms: String Quartets Nos. 1 & 3
--------------------------------------------------------------------------------
DR Пики RMS Продолжительность трека
--------------------------------------------------------------------------------
DR14 -1.22 дБ -21.02 дБ 10:21 01-String Quartet No. 1 in C Minor, Op. 51 No. 1: I. Allegro
DR14 -6.38 дБ -26.30 дБ 6:48 02-String Quartet No. 1 in C Minor, Op. 51 No. 1: II. Romanze - Poco adagio
DR14 -6.79 дБ -26.97 дБ 8:44 03-String Quartet No. 1 in C Minor, Op. 51 No. 1: III. Allegretto molto moderato e comodo
DR14 -1.05 дБ -19.61 дБ 6:18 04-String Quartet No. 1 in C Minor, Op. 51 No. 1: IV. Allegro
DR14 -1.02 дБ -21.63 дБ 10:27 05-String Quartet No. 3 in B-Flat Major, Op. 67: I. Vivace
DR15 -1.12 дБ -21.74 дБ 7:10 06-String Quartet No. 3 in B-Flat Major, Op. 67: II. Andante
DR13 -2.33 дБ -20.96 дБ 8:12 07-String Quartet No. 3 in B-Flat Major, Op. 67: III. Agitato (Allegretto non troppo) - Trio - Coda
DR15 -1.06 дБ -22.73 дБ 10:21 08-String Quartet No. 3 in B-Flat Major, Op. 67: IV. Poco Allegretto con Variazioni
--------------------------------------------------------------------------------
Количество треков: 8
Реальные значения DR: DR14
Частота: 96000 Гц
Каналов: 2
Разрядность: 24
Битрейт: 2387 кбит/с
Кодек: FLAC
================================================================================

Скриншот спектра частот

Track 02
[teatrix.ru].t12566.torrent 
Торрент: Зарегистрирован [ 2016-01-04 21:20 ] · 21EBA016063338DC0E81C61610BA114E0BF922C9

Скачать .torrent

Скачать

13 KB

Статус: проверено
Скачан: 1 раз
Размер: 1.18 GB
terms.php



Быстрый ответ

Имя:

      
Для отправки сообщений необходимо включить JavaScript
Показать сообщения:    

Текущее время: 10-Дек 00:15

Часовой пояс: UTC + 3


Вы можете начинать темы
Вы можете отвечать на сообщения
Вы не можете редактировать свои сообщения
Вы не можете удалять свои сообщения
Вы не можете голосовать в опросах
Вы не можете прикреплять файлы к сообщениям
Вы можете скачивать файлы