Страна ОЗ (Василий Сигарев) [2015, Россия, комедия, WEB-DL 720p] + Original Rus


 

[Цитировать]

Страна ОЗ
Страна: Россия
Студия: Белое Зеркало
Жанр: комедия
Год выпуска: 2015
Продолжительность: 01:39:48
Перевод: Не требуется
Cубтитры: нет
Оригинальная аудиодорожка: русский
Режиссер: Василий Сигарев
В ролях: Яна Троянова, Гоша Куценко, Андрей Ильенков, Александр Баширов, Евгений Цыганов, Владимир Симонов, Инна Чурикова, Светлана Камынина, Юлия Снигирь, Алиса Хазанова
Описание: Новый год в России — стихия неуправляемая и беспощадная. Именно в это волшебное время непостижимый колорит русской души проявляет себя во всей красе. Пока жители Екатеринбурга готовятся к главному национальному празднику и шинкуют оливье, Ленка Шабадинова спешит до боя курантов принять смену в киоске на улице Торфорезов. Но она даже не подозревает, что новогодняя ночь приготовила для нее свой безумный сценарий.

Sample
Тип релиза: WEB-DL 720p
Контейнер: MKV
Видео: MPEG4 AVC Video, H264, 16:9, 1280x688, 24 fps, 3941 kbps
Аудио: Russian (AC3, 6 ch, 384 kbps, 16 bits, 48.0 KHz) - оригиналВнимание!!!
В фильме присутствует ненормативная лексика!!!

MediaInfo

General
Unique ID : 198670353612205955191151380114890138394 (0x957684AFDB8F22EBB4EF670BC591A31A)
Complete name : E:\Страна ОЗ 2015 WEB-DL 720p.mkv
Format : Matroska
Format version : Version 4 / Version 2
File size : 3.08 GiB
Duration : 1h 39mn
Overall bit rate : 4 413 Kbps
Encoded date : UTC 2015-12-25 19:13:12
Writing application : mkvmerge v8.3.0 ('Over the Horizon') 64bit
Writing library : libebml v1.3.1 + libmatroska v1.4.2
DURATION : 01:39:48.000000000
NUMBER_OF_FRAMES : 187125
NUMBER_OF_BYTES : 287424000
_STATISTICS_WRITING_APP : mkvmerge v8.3.0 ('Over the Horizon') 64bit
_STATISTICS_WRITING_DATE_UTC : 2015-12-25 19:13:12
_STATISTICS_TAGS : BPS DURATION NUMBER_OF_FRAMES NUMBER_OF_BYTES
Video
ID : 1
Format : AVC
Format/Info : Advanced Video Codec
Format profile : High@L3.1
Format settings, CABAC : No
Format settings, ReFrames : 2 frames
Codec ID : V_MPEG4/ISO/AVC
Duration : 1h 39mn
Bit rate : 3 941 Kbps
Width : 1 280 pixels
Height : 688 pixels
Display aspect ratio : 1.85:1
Frame rate mode : Constant
Frame rate : 24.000 fps
Color space : YUV
Chroma subsampling : 4:2:0
Bit depth : 8 bits
Scan type : Progressive
Bits/(Pixel*Frame) : 0.186
Stream size : 2.75 GiB (89%)
Language : English
Default : Yes
Forced : No
Color primaries : BT.709
Transfer characteristics : BT.709
Matrix coefficients : BT.709
Audio
ID : 2
Format : AC-3
Format/Info : Audio Coding 3
Mode extension : CM (complete main)
Format settings, Endianness : Big
Codec ID : A_AC3
Duration : 1h 39mn
Bit rate mode : Constant
Bit rate : 384 Kbps
Channel count : 6 channels
Channel positions : Front: L C R, Side: L R, LFE
Sampling rate : 48.0 KHz
Bit depth : 16 bits
Compression mode : Lossy
Stream size : 274 MiB (9%)
Language : Russian
Default : Yes
Forced : No
Menu
00:00:00.000 : en:Глава 1
00:05:34.000 : en:Глава 2
00:11:06.000 : en:Глава 3
00:18:00.000 : en:Глава 4
00:25:01.000 : en:Глава 5
00:30:02.000 : en:Глава 6
00:35:58.000 : en:Глава 7
00:41:20.000 : en:Глава 8
00:47:03.000 : en:Глава 9
00:54:18.000 : en:Глава 10
00:59:58.000 : en:Глава 11
01:05:34.000 : en:Глава 12
01:10:55.000 : en:Глава 13
01:16:00.000 : en:Глава 14
01:22:47.000 : en:Глава 15
01:28:12.000 : en:Глава 16
01:33:39.000 : en:Глава 17

Скриншоты




Показать сообщения:    

Текущее время: 05-Дек 13:33

Часовой пояс: UTC + 3


Вы не можете начинать темы
Вы не можете отвечать на сообщения
Вы не можете редактировать свои сообщения
Вы не можете удалять свои сообщения
Вы не можете голосовать в опросах
Вы не можете прикреплять файлы к сообщениям
Вы не можете скачивать файлы