(Classical) Gershwin, Ravel, Debussy - Royal Philharmonic Orchestra (Christopher O\'Riley, Barry Wordsworth) - 1994, FLAC (image+.cue) lossless


 

[Цитировать]

Gershwin, Ravel, Debussy - Royal Philharmonic Orchestra
Жанр: Classical
Страна-производитель диска: Europe
Год издания диска: 1994
Издатель (лейбл): Tring International PLC
Номер по каталогу: TRP005
Дата записи: 1993
Аудиокодек: FLAC
Тип рипа: image+.cue
Битрейт аудио: lossless
Продолжительность: 01:05:19
Источник: собственный рип
Наличие сканов в содержимом раздачи: да
Треклист:
George Gershwin
1 An American In Paris
2 Rhapsody In Blue
Maurice Ravel
3 Bolero
4 Pavane Pour Un Infante Defunte
Claude Debussy
5 Prelude Á L’Aprés-midi D’Un Faune
Исполнители:
Christopher O'Riley -piano
Barry Wordsworth - conductor
The Royal Philharmonic Orchestra

Лог создания рипа

Exact Audio Copy V1.1 from 23. June 2015
Отчёт EAC об извлечении, выполненном 29. декабря 2015, 16:59
Royal Philharmonic Orchestra / Gershwin / Ravel / Debussy (Royal Philharmonic Orchestra feat. conductor: Barry Wordsworth, piano: Christopher O'Riley)
Дисковод: HL-DT-STDVDRAM GT32N Adapter: 1 ID: 0
Режим чтения : ДостоверностьИспользование точного потока : ДаОтключение кэша аудио : ДаИспользование указателей C2 : Нет
Коррекция смещения при чтении : 103Способность читать области Lead-in и Lead-out : НетЗаполнение пропущенных сэмплов тишиной : ДаУдаление блоков с тишиной в начале и конце : НетПри вычислениях CRC использовались нулевые сэмплы : ДаИнтерфейс : Встроенный Win32-интерфейс для Win NT/2000
Выходной формат : Пользовательский кодировщикВыбранный битрейт : 128 kBit/sКачество : ВысокийДобавление ID3-тега : НетУтилита сжатия : C:\Program Files (x86)\Exact Audio Copy\Flac\flac.exeДополнительные параметры : -V -8 -T "Date=%year%" -T "Genre=%genre%" %source%
TOC извлечённого CD
Трек | Старт | Длительность | Начальный сектор | Конечный сектор --------------------------------------------------------------------- 1 | 0:00.32 | 18:51.50 | 32 | 84906 2 | 18:52.07 | 17:33.10 | 84907 | 163891 3 | 36:25.17 | 13:24.08 | 163892 | 224199 4 | 49:49.25 | 6:04.60 | 224200 | 251559 5 | 55:54.10 | 9:23.22 | 251560 | 293806
Характеристики диапазона извлечения и сообщения об ошибках
Выбранный диапазон
Имя файла C:\Users\Elvis\Documents\Royal Philharmonic Orchestra - Gershwin , Ravel , Debussy\Royal Philharmonic Orchestra - Gershwin , Ravel , Debussy.wav
Пиковый уровень 95.1 % Скорость извлечения 2.1 X Качество диапазона 100.0 % CRC теста 68524695 CRC копии 68524695 Копирование... OK
Ошибок не произошло
AccurateRip: сводка
Трек 1 : извлечено точно (доверие 9) [5C817E50] (AR v2)Трек 2 : извлечено точно (доверие 9) [229C605B] (AR v2)Трек 3 : извлечено точно (доверие 8) [3861A8DE] (AR v2)Трек 4 : извлечено точно (доверие 8) [A2DD37BE] (AR v2)Трек 5 : извлечено точно (доверие 8) [E7B362FC] (AR v2)
Все треки извлечены точно
Конец отчёта
==== Контрольная сумма отчёта 87C1B6D5A8CA2C43D1A5575D79A908C2AC4AAB2CF23E336D428FD91CEA234A0A ====

Содержание индексной карты (.CUE)

REM GENRE ClassicalREM DATE 1998REM DISCID 430F4D05REM COMMENT "ExactAudioCopy v1.1"PERFORMER "Royal Philharmonic Orchestra"TITLE "Gershwin / Ravel / Debussy (Royal Philharmonic Orchestra feat. conductor: Bar..."FILE "Royal Philharmonic Orchestra - Gershwin , Ravel , Debussy.flac" WAVE TRACK 01 AUDIO TITLE "An American in Paris" PERFORMER "George Gershwin" INDEX 00 00:00:00 INDEX 01 00:00:32 TRACK 02 AUDIO TITLE "Rhapsody in Blue" PERFORMER "George Gershwin" INDEX 00 18:49:07 INDEX 01 18:52:07 TRACK 03 AUDIO TITLE "Bolero" PERFORMER "Maurice Ravel" INDEX 00 36:21:17 INDEX 01 36:25:17 TRACK 04 AUDIO TITLE "Pavane pour une infante defunte" PERFORMER "Maurice Ravel" INDEX 00 49:45:25 INDEX 01 49:49:25 TRACK 05 AUDIO TITLE "Prelude a l'apres midi d'un faune" PERFORMER "Claude Debussy" INDEX 00 55:52:10 INDEX 01 55:54:10



Показать сообщения:    

Текущее время: 08-Дек 09:04

Часовой пояс: UTC + 3


Вы не можете начинать темы
Вы не можете отвечать на сообщения
Вы не можете редактировать свои сообщения
Вы не можете удалять свои сообщения
Вы не можете голосовать в опросах
Вы не можете прикреплять файлы к сообщениям
Вы не можете скачивать файлы