(organ) Baroque Organ Music from the Cistercian Abbey in Zirc - Denes Kapitany (G.F. Handel, J.S. Bach, D. Zipoli, A. Corelli) - 2009, FLAC (tracks+.cue) lossless


 

[Цитировать]

Baroque Organ Music from the Cistercian Abbey in Zirc - Denes Kapitany
Lékai-Hochenburger Péter Jusztin Atya emlekere

Жанр: organ
Страна-производитель диска: Hungary
Год издания диска: 2009
Издатель (лейбл): ~
Номер по каталогу: ~
Дата записи: 21-22.03.2009
Аудиокодек: FLAC
Тип рипа: tracks+.cue
Битрейт аудио: lossless
Продолжительность: 1:09:04
Источник: релизер
сайт-источник/ник/другое: hixius
Наличие сканов в содержимом раздачи: да
Треклист:
George Frideric Handel
1. The arrival of the Queen of Sheba
Johann Sebastian Bach
2. Toccata and Fugue in D Minor, BWV 565
D. Zipoli
3. Partita
Johann Sebastian Bach
Prelude and Fugue in E minor, BWV 548
4. Prelude
5. Fugue
Arcangelo Corelli
6. Concerto Grosso in g minor, Op. 6. No. 8
Johann Sebastian Bach
7. Passacaglia, BWV 582
George Frideric Handel
Organ Concerto in B-flat major, Op.4, HWV 290
8. A tempo ordinario, e staccato
9. Allegro
10. Adagio, e staccato
11. Allegro-Исполнители:
Dénes Kapitány - the Organ of the Shrine; The Cistercian abbey of Zirc (Венгрия)

Лог создания рипа

Exact Audio Copy V1.0 beta 3 from 29. August 2011
EAC extraction logfile from 14. September 2015, 9:30
Denes Kapitany / Baroque Organ Music
Used drive : HL-DT-STDVDRAM GH24NSB0 Adapter: 5 ID: 0
Read mode : SecureUtilize accurate stream : YesDefeat audio cache : YesMake use of C2 pointers : No
Read offset correction : 6Overread into Lead-In and Lead-Out : NoFill up missing offset samples with silence : YesDelete leading and trailing silent blocks : NoNull samples used in CRC calculations : YesUsed interface : Native Win32 interface for Win NT & 2000Gap handling : Appended to previous track
Used output format : User Defined EncoderSelected bitrate : 1024 kBit/sQuality : HighAdd ID3 tag : NoCommand line compressor : C:\Program Files (x86)\Exact Audio Copy\Flac\flac.exeAdditional command line options : -8 -V -T "ARTIST=%artist%" -T "TITLE=%title%" -T "ALBUM=%albumtitle%" -T "DATE=%year%" -T "TRACKNUMBER=%tracknr%" -T "TOTALTRACKS=%numtracks%" -T "GENRE=%genre%" -T "ALBUMARTIST=%albumartist%" -T "ALBUM ARTIST=%albumartist%" -T "COMMENT=EAC Secure Mode, Test & Copy, AccurateRip, FLAC -8" %source%
TOC of the extracted CD
Track | Start | Length | Start sector | End sector --------------------------------------------------------- 1 | 0:00.00 | 3:57.56 | 0 | 17830 2 | 3:57.56 | 7:54.49 | 17831 | 53429 3 | 11:52.30 | 5:43.48 | 53430 | 79202 4 | 17:36.03 | 6:43.49 | 79203 | 109476 5 | 24:19.52 | 7:58.25 | 109477 | 145351 6 | 32:18.02 | 13:18.01 | 145352 | 205202 7 | 45:36.03 | 12:15.43 | 205203 | 260370 8 | 57:51.46 | 1:12.42 | 260371 | 265812 9 | 59:04.13 | 4:58.70 | 265813 | 288232 10 | 64:03.08 | 0:57.36 | 288233 | 292543 11 | 65:00.44 | 4:09.64 | 292544 | 311282
Track 1
Filename D:\1\01 - G. F. Handel - The arrival of the Queen of Sheba.wav
Pre-gap length 0:00:02.00
Peak level 55.9 % Extraction speed 1.1 X Track quality 100.0 % Test CRC 89C72174 Copy CRC 89C72174 Track not present in AccurateRip database Copy OK
Track 2
Filename D:\1\02 - J. S. Bach - Toccata and Fugue in D Minor, BWV 565.wav
Pre-gap length 0:00:03.21
Peak level 93.4 % Extraction speed 1.4 X Track quality 100.0 % Test CRC 458E2573 Copy CRC 458E2573 Track not present in AccurateRip database Copy OK
Track 3
Filename D:\1\03 - D. Zipoli - Partita.wav
Pre-gap length 0:00:02.52
Peak level 52.6 % Extraction speed 1.4 X Track quality 99.9 % Test CRC 8F4CDC29 Copy CRC 8F4CDC29 Track not present in AccurateRip database Copy OK
Track 4
Filename D:\1\04 - J. S. Bach - Prelude and Fugue in E minor, BWV 548 - Prelude.wav
Pre-gap length 0:00:02.72
Peak level 94.4 % Extraction speed 1.7 X Track quality 100.0 % Test CRC CEF6BDB9 Copy CRC CEF6BDB9 Track not present in AccurateRip database Copy OK
Track 5
Filename D:\1\05 - J. S. Bach - Prelude and Fugue in E minor, BWV 548 - Fugue.wav
Peak level 79.2 % Extraction speed 1.9 X Track quality 100.0 % Test CRC 0567D285 Copy CRC 0567D285 Track not present in AccurateRip database Copy OK
Track 6
Filename D:\1\06 - A. Corelli - Concerto Grosso in g minor, Op. 6. No. 8.wav
Pre-gap length 0:00:04.09
Peak level 80.3 % Extraction speed 2.2 X Track quality 100.0 % Test CRC 14F2EB48 Copy CRC 14F2EB48 Track not present in AccurateRip database Copy OK
Track 7
Filename D:\1\07 - J. S. Bach - Passacaglia, BWV 582.wav
Pre-gap length 0:00:02.47
Peak level 100.0 % Extraction speed 2.4 X Track quality 100.0 % Test CRC 8B7FAB3C Copy CRC 8B7FAB3C Track not present in AccurateRip database Copy OK
Track 8
Filename D:\1\08 - G. F. Handel - Organ Concerto in B-flat major, Op.4, HWV 290 - A tempo ordinario, e staccato.wav
Pre-gap length 0:00:03.07
Peak level 73.7 % Extraction speed 1.7 X Track quality 100.0 % Test CRC B297FF43 Copy CRC B297FF43 Track not present in AccurateRip database Copy OK
Track 9
Filename D:\1\09 - G. F. Handel - Organ Concerto in B-flat major, Op.4, HWV 290 - Allegro.wav
Peak level 44.9 % Extraction speed 2.4 X Track quality 100.0 % Test CRC 7FDEE8F9 Copy CRC 7FDEE8F9 Track not present in AccurateRip database Copy OK
Track 10
Filename D:\1\10 - G. F. Handel - Organ Concerto in B-flat major, Op.4, HWV 290 - Adagio, e staccato.wav
Peak level 27.8 % Extraction speed 1.7 X Track quality 100.0 % Test CRC A642358C Copy CRC A642358C Track not present in AccurateRip database Copy OK
Track 11
Filename D:\1\11 - G. F. Handel - Organ Concerto in B-flat major, Op.4, HWV 290 - Allegro.wav
Peak level 49.3 % Extraction speed 2.4 X Track quality 100.0 % Test CRC 380AD8D0 Copy CRC 380AD8D0 Track not present in AccurateRip database Copy OK
None of the tracks are present in the AccurateRip database
No errors occurred
End of status report
==== Log checksum 4024E3C92AF5E4D967363CA3DC0EB5AFBB5620FE6DA61C5590BD2FD6257B8745 ====

Содержание индексной карты (.CUE)

REM GENRE ClassicalREM DATE 2009REM DISCID 9D10360BREM COMMENT "ExactAudioCopy v1.0b3"PERFORMER "Denes Kapitany"TITLE "Baroque Organ Music"FILE "01 - G. F. Handel - The arrival of the Queen of Sheba.wav" WAVE TRACK 01 AUDIO TITLE "The arrival of the Queen of Sheba" PERFORMER "G. F. Handel" INDEX 01 00:00:00 TRACK 02 AUDIO TITLE "Toccata and Fugue in D Minor, BWV 565" PERFORMER "J. S. Bach" INDEX 00 03:54:35FILE "02 - J. S. Bach - Toccata and Fugue in D Minor, BWV 565.wav" WAVE INDEX 01 00:00:00 TRACK 03 AUDIO TITLE "Partita" PERFORMER "D. Zipoli" INDEX 00 07:51:72FILE "03 - D. Zipoli - Partita.wav" WAVE INDEX 01 00:00:00 TRACK 04 AUDIO TITLE "Prelude and Fugue in E minor, BWV 548 - Prelude" PERFORMER "J. S. Bach" INDEX 00 05:40:51FILE "04 - J. S. Bach - Prelude and Fugue in E minor, BWV 548 - Prelude.wav" WAVE INDEX 01 00:00:00FILE "05 - J. S. Bach - Prelude and Fugue in E minor, BWV 548 - Fugue.wav" WAVE TRACK 05 AUDIO TITLE "Prelude and Fugue in E minor, BWV 548 - Fugue" PERFORMER "J. S. Bach" INDEX 01 00:00:00 TRACK 06 AUDIO TITLE "Concerto Grosso in g minor, Op. 6. No. 8" PERFORMER "A. Corelli" INDEX 00 07:54:16FILE "06 - A. Corelli - Concerto Grosso in g minor, Op. 6. No. 8.wav" WAVE INDEX 01 00:00:00 TRACK 07 AUDIO TITLE "Passacaglia, BWV 582" PERFORMER "J. S. Bach" INDEX 00 13:15:29FILE "07 - J. S. Bach - Passacaglia, BWV 582.wav" WAVE INDEX 01 00:00:00 TRACK 08 AUDIO TITLE "Organ Concerto in B-flat major, Op.4, HWV 290 - A tempo ordinario, e staccato" PERFORMER "G. F. Handel" INDEX 00 12:12:36FILE "08 - G. F. Handel - Organ Concerto in B-flat major, Op.4, HWV 290 - A tempo ordinario, e staccato.wav" WAVE INDEX 01 00:00:00FILE "09 - G. F. Handel - Organ Concerto in B-flat major, Op.4, HWV 290 - Allegro.wav" WAVE TRACK 09 AUDIO TITLE "Organ Concerto in B-flat major, Op.4, HWV 290 - Allegro" PERFORMER "G. F. Handel" INDEX 01 00:00:00FILE "10 - G. F. Handel - Organ Concerto in B-flat major, Op.4, HWV 290 - Adagio, e staccato.wav" WAVE TRACK 10 AUDIO TITLE "Organ Concerto in B-flat major, Op.4, HWV 290 - Adagio, e staccato" PERFORMER "G. F. Handel" INDEX 01 00:00:00FILE "11 - G. F. Handel - Organ Concerto in B-flat major, Op.4, HWV 290 - Allegro.wav" WAVE TRACK 11 AUDIO TITLE "Organ Concerto in B-flat major, Op.4, HWV 290 - Allegro" PERFORMER "G. F. Handel" INDEX 01 00:00:00

Лог проверки качества

AUDIOCHECKER v2.0 beta (build 457) - by Dester - opdester@freemail.hu~~~~~~~~~~~~~~~~~~~~~~~~~~~~~~~~~~-=== DO NOT EDIT THIS FILE! ===-
Path: ...\Denes Kapitany - Baroque Organ Music from the Cistern Abbey in Zirc (2009) [FLAC]
01 -=- 01 - G. F. Handel - The arrival of the Queen of Sheba.flac -=- CDDA (43%)02 -=- 02 - J. S. Bach - Toccata and Fugue in D Minor, BWV 565.flac -=- CDDA (100%)03 -=- 03 - D. Zipoli - Partita.flac -=- CDDA (62%)04 -=- 04 - J. S. Bach - Prelude and Fugue in E minor, BWV 548 - Prelude.flac -=- CDDA (86%)05 -=- 05 - J. S. Bach - Prelude and Fugue in E minor, BWV 548 - Fugue.flac -=- CDDA (87%)06 -=- 06 - A. Corelli - Concerto Grosso in g minor, Op. 6. No. 8.flac -=- CDDA (43%)07 -=- 07 - J. S. Bach - Passacaglia, BWV 582.flac -=- CDDA (100%)08 -=- 08 - G. F. Handel - Organ Concerto in B-flat major, Op.4, HWV 290 - A tempo ordinario, e staccato.flac -=- CDDA (100%)09 -=- 09 - G. F. Handel - Organ Concerto in B-flat major, Op.4, HWV 290 - Allegro.flac -=- ERROR10 -=- 10 - G. F. Handel - Organ Concerto in B-flat major, Op.4, HWV 290 - Adagio, e staccato.flac -=- MPEG (100%)11 -=- 11 - G. F. Handel - Organ Concerto in B-flat major, Op.4, HWV 290 - Allegro.flac -=- ERROR
Summary 69,00% CDDA
574148

Скриншот спектра частот

Доп. информация: Диск посвящен памяти Péter Jusztin Lékai-Hochenburger (1932-2009)



Показать сообщения:    

Текущее время: 09-Дек 20:30

Часовой пояс: UTC + 3


Вы не можете начинать темы
Вы не можете отвечать на сообщения
Вы не можете редактировать свои сообщения
Вы не можете удалять свои сообщения
Вы не можете голосовать в опросах
Вы не можете прикреплять файлы к сообщениям
Вы не можете скачивать файлы