(Score, Pop Rock, Synth-pop, Disco, Soul) [CD] VA - Film Hits - Original Soundtrack Hits (2-CD) - 1992, FLAC (tracks+.cue), lossless


Статистика раздачи [Обновить пиров]
Размер:  725 MB   |    Зарегистрирован:  11 месяцев 1 день   |    Скачан:  0 раз

Полного источника не было: Никогда

 
   
 
 
 

[Цитировать]

Film Hits - Original Soundtrack Hits (2-CD)
Жанр: Score, Pop Rock, Synth-pop, Disco, Soul
Носитель: CD
Год издания: 1992
Страна-производитель: Belgium
Издатель (лейбл): Mercury
Номер по каталогу: 515.867-2
Аудиокодек: FLAC (*.flac)
Тип рипа: tracks+.cue
Битрейт аудио: lossless
Продолжительность: 01:57:08
Источник (релизер): WRZmusic
Наличие сканов в содержимом раздачи: нет
Треклист:

CD-1: (00:56:38)

01 Micheal Sambello - Maniac [04:04]
02 Limahl - Never Ending Story [03:32]
03 Irene Cara - Fame [05:15]
04 Maurreen McGovern - The Morning After [02:21]
05 Chrystel Waters - Gypsy Woman [03:47]
06 Diana Ross - Theme From Mahogany [03:24]
07 Ensemble Chorus Line - One [03:55]
08 Marvin Gaye - I Heard It Through The Grapevine [03:15]
09 Vangelis - Chariots Of Fire [03:28]
10 Jerry Lee Lewis - Great Balls Of Fire [02:35]
11 Frank Stallone - Far From Over [03:56]
12 John Parr - St. Elmo's Fire [04:07]
13 Ollie & Jerry - Breakin' [04:29]
14 Donna Summer - Theme From The Deep [04:13]
15 Giorgio Moroder - Chase [04:17]

Лог создания рипа

Exact Audio Copy V1.0 beta 3 from 29. August 2011
EAC extraction logfile from 24. August 2012, 11:27
Various / Film Hits Disc1
Used drive : Optiarc BD ROM BC-5501S Adapter: 0 ID: 1
Read mode : SecureUtilize accurate stream : YesDefeat audio cache : YesMake use of C2 pointers : No
Read offset correction : 48Overread into Lead-In and Lead-Out : NoFill up missing offset samples with silence : YesDelete leading and trailing silent blocks : NoNull samples used in CRC calculations : YesUsed interface : Native Win32 interface for Win NT & 2000Gap handling : Appended to previous track
Used output format : User Defined EncoderSelected bitrate : 128 kBit/sQuality : HighAdd ID3 tag : NoCommand line compressor : C:\Philip\Allerlei\Audio Programs\EAC\Flac\flac.exeAdditional command line options : -8 -V -T "ARTIST=%artist%" -T "TITLE=%title%" -T "ALBUM=%albumtitle%" -T "DATE=%year%" -T "TRACKNUMBER=%tracknr%" -T "GENRE=%genre%" -T "PERFORMER=%albuminterpret%" -T "COMPOSER=%composer%" %haslyrics%--tag-from-file=LYRICS="%lyricsfile%"%haslyrics% -T "ALBUMARTIST=%albumartist%" -T "DISCNUMBER=%cdnumber%" -T "TOTALDISCS=%totalcds%" -T "TOTALTRACKS=%numtracks%" -T "COMMENT=%comment%" %source% -o %dest%
TOC of the extracted CD
Track | Start | Length | Start sector | End sector --------------------------------------------------------- 1 | 0:00.33 | 4:04.15 | 33 | 18347 2 | 4:04.48 | 3:32.12 | 18348 | 34259 3 | 7:36.60 | 5:15.13 | 34260 | 57897 4 | 12:51.73 | 2:20.57 | 57898 | 68454 5 | 15:12.55 | 3:47.08 | 68455 | 85487 6 | 18:59.63 | 3:24.25 | 85488 | 100812 7 | 22:24.13 | 3:54.40 | 100813 | 118402 8 | 26:18.53 | 3:14.42 | 118403 | 132994 9 | 29:33.20 | 3:28.03 | 132995 | 148597 10 | 33:01.23 | 2:34.55 | 148598 | 160202 11 | 35:36.03 | 3:56.22 | 160203 | 177924 12 | 39:32.25 | 4:07.15 | 177925 | 196464 13 | 43:39.40 | 4:29.23 | 196465 | 216662 14 | 48:08.63 | 4:13.10 | 216663 | 235647 15 | 52:21.73 | 4:17.35 | 235648 | 254957
Track 1
Filename C:\What\Eigen CD Rip\VA - Film Hits\VA - Film Hits (1992) - FLAC\CD 1\01 - Micheal Sambello - Maniac.wav
Pre-gap length 0:00:02.44
Peak level 84.9 % Extraction speed 2.3 X Track quality 100.0 % Test CRC BA7F5585 Copy CRC BA7F5585 Track not present in AccurateRip database Copy OK
Track 2
Filename C:\What\Eigen CD Rip\VA - Film Hits\VA - Film Hits (1992) - FLAC\CD 1\02 - Limahl - Never Ending Story.wav
Pre-gap length 0:00:01.04
Peak level 93.7 % Extraction speed 2.0 X Track quality 99.9 % Test CRC B2921809 Copy CRC B2921809 Track not present in AccurateRip database Copy OK
Track 3
Filename C:\What\Eigen CD Rip\VA - Film Hits\VA - Film Hits (1992) - FLAC\CD 1\03 - Irene Cara - Fame.wav
Pre-gap length 0:00:02.02
Peak level 83.2 % Extraction speed 2.8 X Track quality 100.0 % Test CRC 8F35420E Copy CRC 8F35420E Track not present in AccurateRip database Copy OK
Track 4
Filename C:\What\Eigen CD Rip\VA - Film Hits\VA - Film Hits (1992) - FLAC\CD 1\04 - Maurreen McGovern - The Morning After.wav
Pre-gap length 0:00:01.53
Peak level 73.8 % Extraction speed 2.0 X Track quality 99.9 % Test CRC 03ECBA01 Copy CRC 03ECBA01 Track not present in AccurateRip database Copy OK
Track 5
Filename C:\What\Eigen CD Rip\VA - Film Hits\VA - Film Hits (1992) - FLAC\CD 1\05 - Chrystel Waters - Gypsy Woman.wav
Pre-gap length 0:00:01.62
Peak level 86.5 % Extraction speed 3.0 X Track quality 100.0 % Test CRC 01444353 Copy CRC 01444353 Track not present in AccurateRip database Copy OK
Track 6
Filename C:\What\Eigen CD Rip\VA - Film Hits\VA - Film Hits (1992) - FLAC\CD 1\06 - Diana Ross - Theme From Mahogany.wav
Pre-gap length 0:00:01.73
Peak level 98.7 % Extraction speed 3.2 X Track quality 100.0 % Test CRC 365CF3D2 Copy CRC 365CF3D2 Track not present in AccurateRip database Copy OK
Track 7
Filename C:\What\Eigen CD Rip\VA - Film Hits\VA - Film Hits (1992) - FLAC\CD 1\07 - Ensemble Chorus Line - One.wav
Pre-gap length 0:00:01.73
Peak level 99.2 % Extraction speed 3.4 X Track quality 100.0 % Test CRC 09C3FD8E Copy CRC 09C3FD8E Track not present in AccurateRip database Copy OK
Track 8
Filename C:\What\Eigen CD Rip\VA - Film Hits\VA - Film Hits (1992) - FLAC\CD 1\08 - Marvin Gaye - I Heard It Through The Grapevine.wav
Pre-gap length 0:00:01.10
Peak level 75.2 % Extraction speed 2.8 X Track quality 99.9 % Test CRC 4137A2A1 Copy CRC 4137A2A1 Track not present in AccurateRip database Copy OK
Track 9
Filename C:\What\Eigen CD Rip\VA - Film Hits\VA - Film Hits (1992) - FLAC\CD 1\09 - Vangelis - Chariots Of Fire.wav
Pre-gap length 0:00:01.49
Peak level 70.7 % Extraction speed 3.6 X Track quality 100.0 % Test CRC F1EFCBAF Copy CRC F1EFCBAF Track not present in AccurateRip database Copy OK
Track 10
Filename C:\What\Eigen CD Rip\VA - Film Hits\VA - Film Hits (1992) - FLAC\CD 1\10 - Jerry Lee Lewis - Great Balls Of Fire.wav
Pre-gap length 0:00:01.53
Peak level 85.6 % Extraction speed 3.5 X Track quality 100.0 % Test CRC 796A832E Copy CRC 796A832E Track not present in AccurateRip database Copy OK
Track 11
Filename C:\What\Eigen CD Rip\VA - Film Hits\VA - Film Hits (1992) - FLAC\CD 1\11 - Frank Stallone - Far From Over.wav
Pre-gap length 0:00:01.44
Peak level 77.6 % Extraction speed 3.9 X Track quality 100.0 % Test CRC F0FEDDD3 Copy CRC F0FEDDD3 Track not present in AccurateRip database Copy OK
Track 12
Filename C:\What\Eigen CD Rip\VA - Film Hits\VA - Film Hits (1992) - FLAC\CD 1\12 - John Parr - St. Elmo's Fire.wav
Pre-gap length 0:00:02.22
Peak level 71.6 % Extraction speed 4.1 X Track quality 100.0 % Test CRC 9F452829 Copy CRC 9F452829 Track not present in AccurateRip database Copy OK
Track 13
Filename C:\What\Eigen CD Rip\VA - Film Hits\VA - Film Hits (1992) - FLAC\CD 1\13 - Ollie & Jerry - Breakin'.wav
Pre-gap length 0:00:01.42
Peak level 84.1 % Extraction speed 4.3 X Track quality 100.0 % Test CRC 077204B2 Copy CRC 077204B2 Track not present in AccurateRip database Copy OK
Track 14
Filename C:\What\Eigen CD Rip\VA - Film Hits\VA - Film Hits (1992) - FLAC\CD 1\14 - Donna Summer - Theme From The Deep.wav
Pre-gap length 0:00:01.73
Peak level 71.7 % Extraction speed 4.4 X Track quality 100.0 % Test CRC BCCCE878 Copy CRC BCCCE878 Track not present in AccurateRip database Copy OK
Track 15
Filename C:\What\Eigen CD Rip\VA - Film Hits\VA - Film Hits (1992) - FLAC\CD 1\15 - Giorgio Moroder - Chase.wav
Pre-gap length 0:00:02.20
Peak level 88.4 % Extraction speed 4.6 X Track quality 100.0 % Test CRC 088EB9FC Copy CRC 088EB9FC Track not present in AccurateRip database Copy OK
None of the tracks are present in the AccurateRip database
No errors occurred
End of status report
==== Log checksum 509FA73B35DC30BF8D52B9A1F916C1278E496A0F84697837EDEFC36DD503FF0D ====

Содержание индексной карты (.CUE)

REM GENRE OtherREM DATE 1992REM DISCID D10D470FREM COMMENT "ExactAudioCopy v1.0b3"PERFORMER "Various"TITLE "Film Hits Disc1"FILE "01 - Micheal Sambello - Maniac.wav" WAVE TRACK 01 AUDIO TITLE "Maniac" PERFORMER "Micheal Sambello" ISRC 000000000000 PREGAP 00:00:33 INDEX 01 00:00:00 TRACK 02 AUDIO TITLE "Never Ending Story" PERFORMER "Limahl" ISRC 000000000000 INDEX 00 04:03:12FILE "02 - Limahl - Never Ending Story.wav" WAVE INDEX 01 00:00:00 TRACK 03 AUDIO TITLE "Fame" PERFORMER "Irene Cara" ISRC 000000000000 INDEX 00 03:30:10FILE "03 - Irene Cara - Fame.wav" WAVE INDEX 01 00:00:00 TRACK 04 AUDIO TITLE "The Morning After" PERFORMER "Maurreen McGovern" ISRC 000000000000 INDEX 00 05:13:48FILE "04 - Maurreen McGovern - The Morning After.wav" WAVE INDEX 01 00:00:00 TRACK 05 AUDIO TITLE "Gypsy Woman" PERFORMER "Chrystel Waters" ISRC 000000000000 INDEX 00 02:19:10FILE "05 - Chrystel Waters - Gypsy Woman.wav" WAVE INDEX 01 00:00:00 TRACK 06 AUDIO TITLE "Theme From Mahogany" PERFORMER "Diana Ross" ISRC 000000000000 INDEX 00 03:45:28FILE "06 - Diana Ross - Theme From Mahogany.wav" WAVE INDEX 01 00:00:00 TRACK 07 AUDIO TITLE "One" PERFORMER "Ensemble Chorus Line" ISRC 000000000000 INDEX 00 03:22:45FILE "07 - Ensemble Chorus Line - One.wav" WAVE INDEX 01 00:00:00 TRACK 08 AUDIO TITLE "I Heard It Through The Grapevine" PERFORMER "Marvin Gaye" ISRC 000000000000 INDEX 00 03:53:32FILE "08 - Marvin Gaye - I Heard It Through The Grapevine.wav" WAVE INDEX 01 00:00:00 TRACK 09 AUDIO TITLE "Chariots Of Fire" PERFORMER "Vangelis" ISRC 000000000000 INDEX 00 03:13:05FILE "09 - Vangelis - Chariots Of Fire.wav" WAVE INDEX 01 00:00:00 TRACK 10 AUDIO TITLE "Great Balls Of Fire" PERFORMER "Jerry Lee Lewis" ISRC 000000000000 INDEX 00 03:26:38FILE "10 - Jerry Lee Lewis - Great Balls Of Fire.wav" WAVE INDEX 01 00:00:00 TRACK 11 AUDIO TITLE "Far From Over" PERFORMER "Frank Stallone" ISRC 000000000000 INDEX 00 02:33:22FILE "11 - Frank Stallone - Far From Over.wav" WAVE INDEX 01 00:00:00 TRACK 12 AUDIO TITLE "St. Elmo's Fire" PERFORMER "John Parr" ISRC 000000000000 INDEX 00 03:54:05FILE "12 - John Parr - St. Elmo's Fire.wav" WAVE INDEX 01 00:00:00 TRACK 13 AUDIO TITLE "Breakin'" PERFORMER "Ollie & Jerry" ISRC 000000000000 INDEX 00 04:05:58FILE "13 - Ollie & Jerry - Breakin'.wav" WAVE INDEX 01 00:00:00 TRACK 14 AUDIO TITLE "Theme From The Deep" PERFORMER "Donna Summer" ISRC 000000000000 INDEX 00 04:27:43FILE "14 - Donna Summer - Theme From The Deep.wav" WAVE INDEX 01 00:00:00 TRACK 15 AUDIO TITLE "Chase" PERFORMER "Giorgio Moroder" ISRC 000000000000 INDEX 00 04:10:70FILE "15 - Giorgio Moroder - Chase.wav" WAVE INDEX 01 00:00:00

Лог проверки качества

-----------------------
DON'T MODIFY THIS FILE
-----------------------
PERFORMER: auCDtect Task Manager, ver. 1.6.0 RC1 build 1.6.0.1Copyright (c) 2008-2010 y-soft. All rights reservedhttp://y-soft.org
ANALYZER: auCDtect: CD records authenticity detector, version 0.8.2Copyright (c) 2004 Oleg Berngardt. All rights reserved.Copyright (c) 2004 Alexander Djourik. All rights reserved.
FILE: 01 - Micheal Sambello - Maniac.flac Size: 27305472 Hash: 3AD5539F46F601E49603999590E0A226 Accuracy: -m0 Conclusion: CDDA 100% Signature: DC609AEA196218A6DA7A2B734D21CDD4DFC1CEC3FILE: 02 - Limahl - Never Ending Story.flac Size: 22552167 Hash: DE91A0E8F2FD3E92FF42196A21713E38 Accuracy: -m0 Conclusion: CDDA 100% Signature: 566ACDE8E69D5A5496DAD86FECD32F7A8E62045CFILE: 03 - Irene Cara - Fame.flac Size: 36048908 Hash: 84E31460E15C308FA64A4BB6F71E700D Accuracy: -m0 Conclusion: CDDA 100% Signature: F09D93189D0A7E8F21DE8E42CEF78249953AAFBAFILE: 04 - Maurreen McGovern - The Morning After.flac Size: 15706159 Hash: 17FF84E7DE8CE8586308BBC4BF33756A Accuracy: -m0 Conclusion: CDDA 100% Signature: 7FE221B1A7D312ACF469181FF82CF7EE3CEAA056FILE: 05 - Chrystel Waters - Gypsy Woman.flac Size: 21821085 Hash: 8A442B26DE26287A8394899707BF2824 Accuracy: -m0 Conclusion: CDDA 100% Signature: 6B1A6C98245351BDC1D920167DAB08544AE901D2FILE: 06 - Diana Ross - Theme From Mahogany.flac Size: 19026298 Hash: 0B8EA3D7FDE08BAB5AA88A1E7DDDEF7F Accuracy: -m0 Conclusion: CDDA 100% Signature: 24DD78DFE4F6FB1C679665E387A68D2E9A357EFEFILE: 07 - Ensemble Chorus Line - One.flac Size: 26030327 Hash: 90B81E64EFE5061C1521355650A99553 Accuracy: -m0 Conclusion: MPEG 85% Signature: 1636D0D81EDA9DDC6623C3492112F3FA86B1C511FILE: 08 - Marvin Gaye - I Heard It Through The Grapevine.flac Size: 19734596 Hash: D42E96BCB476864E3A4F7CC21FBFCB51 Accuracy: -m0 Conclusion: CDDA 100% Signature: C7462F9C6995C08E978A84A487AA2ADFA8429448FILE: 09 - Vangelis - Chariots Of Fire.flac Size: 21581345 Hash: 4B2774E9BEDD93EE4B0071BD7999FB06 Accuracy: -m0 Conclusion: CDDA 99% Signature: 7B205636825BD1FA92FB1341E6879C81CE6EFD58FILE: 10 - Jerry Lee Lewis - Great Balls Of Fire.flac Size: 17901518 Hash: 15BD5C9724BE772588F683389763ED76 Accuracy: -m0 Conclusion: CDDA 99% Signature: 9648B89DA9745D20B9207CBFF284561098C13E71FILE: 11 - Frank Stallone - Far From Over.flac Size: 27146536 Hash: 3E34DAD9DE2AA8E2D7E715EBB5C9AA31 Accuracy: -m0 Conclusion: CDDA 100% Signature: B45D008817D9A67EEB7505503BF2083AF872F7E5FILE: 12 - John Parr - St. Elmo's Fire.flac Size: 27109695 Hash: AE9C0544C8A084C6063AEFCBDC6F9801 Accuracy: -m0 Conclusion: CDDA 100% Signature: FA6B20246DEB5A6C02A0D1EEEFDA73F7B65C6A46FILE: 13 - Ollie & Jerry - Breakin'.flac Size: 30636168 Hash: E1FE9EAFC693890B313B055224420691 Accuracy: -m0 Conclusion: CDDA 100% Signature: 51A2268478CBC5CD5F9095B4D4C62E74331A88C4FILE: 14 - Donna Summer - Theme From The Deep.flac Size: 26364570 Hash: 84524B264560B5F4DADF92D050129CB2 Accuracy: -m0 Conclusion: CDDA 100% Signature: 2A793D286BE327669B7E939EBAA09FBAF33344DDFILE: 15 - Giorgio Moroder - Chase.flac Size: 28852415 Hash: 28B6B9A968AA7BC88B3B89A3B031B55C Accuracy: -m0 Conclusion: CDDA 100% Signature: 550E271CF3DEC9255BFDA8CF1E5355AF90C8E04E

CD-2: (01:00:30)

01 John Travolta & Olivia Newton John - Grease Megamix [04:50]
02 Tina Turner - We Don't Need Another Hero [04:17]
03 George Michael - I Want Your Sex [04:43]
04 The Scorpions - Hit Between The Eyes [04:33]
05 James Brown - Living In America [04:44]
06 The Righteous Brothers - Unchained Melody [03:38]
07 Mike Oldfield - Tubular Bells [03:07]
08 Survivor - Eye Of The Tiger [03:47]
09 The Bangles - Hazy Shade Of Winter [02:49]
10 Donna Summer - Love To Love You Baby [03:54]
11 Lisa Hunt & Zucchero - Something Strong [04:34]
12 Stewart Copeland - Don't box me in [04:36]
13 Bronski Beat - Hit that Perfect Beat [03:30]
14 Vangelis - Theme From Antartica [07:28]

Лог создания рипа

Exact Audio Copy V1.0 beta 3 from 29. August 2011
EAC extraction logfile from 24. August 2012, 17:12
Various / Film Hits Disk 2
Used drive : Optiarc BD ROM BC-5501S Adapter: 0 ID: 1
Read mode : SecureUtilize accurate stream : YesDefeat audio cache : YesMake use of C2 pointers : No
Read offset correction : 48Overread into Lead-In and Lead-Out : NoFill up missing offset samples with silence : YesDelete leading and trailing silent blocks : NoNull samples used in CRC calculations : YesUsed interface : Native Win32 interface for Win NT & 2000Gap handling : Appended to previous track
Used output format : User Defined EncoderSelected bitrate : 128 kBit/sQuality : HighAdd ID3 tag : NoCommand line compressor : C:\Philip\Allerlei\Audio Programs\EAC\Flac\flac.exeAdditional command line options : -8 -V -T "ARTIST=%artist%" -T "TITLE=%title%" -T "ALBUM=%albumtitle%" -T "DATE=%year%" -T "TRACKNUMBER=%tracknr%" -T "GENRE=%genre%" -T "PERFORMER=%albuminterpret%" -T "COMPOSER=%composer%" %haslyrics%--tag-from-file=LYRICS="%lyricsfile%"%haslyrics% -T "ALBUMARTIST=%albumartist%" -T "DISCNUMBER=%cdnumber%" -T "TOTALDISCS=%totalcds%" -T "TOTALTRACKS=%numtracks%" -T "COMMENT=%comment%" %source% -o %dest%
TOC of the extracted CD
Track | Start | Length | Start sector | End sector --------------------------------------------------------- 1 | 0:00.33 | 4:49.47 | 33 | 21754 2 | 4:50.05 | 4:17.28 | 21755 | 41057 3 | 9:07.33 | 4:43.25 | 41058 | 62307 4 | 13:50.58 | 4:33.22 | 62308 | 82804 5 | 18:24.05 | 4:44.00 | 82805 | 104104 6 | 23:08.05 | 3:37.60 | 104105 | 120439 7 | 26:45.65 | 3:07.18 | 120440 | 134482 8 | 29:53.08 | 3:47.25 | 134483 | 151532 9 | 33:40.33 | 2:48.50 | 151533 | 164182 10 | 36:29.08 | 3:54.07 | 164183 | 181739 11 | 40:23.15 | 4:33.50 | 181740 | 202264 12 | 44:56.65 | 4:35.43 | 202265 | 222932 13 | 49:32.33 | 3:29.47 | 222933 | 238654 14 | 53:02.05 | 7:27.53 | 238655 | 272232
Track 1
Filename C:\What\Eigen CD Rip\VA - Film Hits\VA - Film Hits (1992) - FLAC\CD 2\01 - John Travolta & Olivia Newton John - Grease Megamix.wav
Pre-gap length 0:00:02.44
Peak level 97.3 % Extraction speed 1.2 X Track quality 100.0 % Test CRC 7A20A7BF Copy CRC 7A20A7BF Track not present in AccurateRip database Copy OK
Track 2
Filename C:\What\Eigen CD Rip\VA - Film Hits\VA - Film Hits (1992) - FLAC\CD 2\02 - Tina Turner - We Don't Need Another Hero.wav
Peak level 85.8 % Extraction speed 1.3 X Track quality 100.0 % Test CRC DEB5C168 Copy CRC DEB5C168 Track not present in AccurateRip database Copy OK
Track 3
Filename C:\What\Eigen CD Rip\VA - Film Hits\VA - Film Hits (1992) - FLAC\CD 2\03 - George Michael - I Want Your Sex.wav
Pre-gap length 0:00:01.66
Peak level 99.2 % Extraction speed 1.4 X Track quality 100.0 % Test CRC 5066AFEB Copy CRC 5066AFEB Track not present in AccurateRip database Copy OK
Track 4
Filename C:\What\Eigen CD Rip\VA - Film Hits\VA - Film Hits (1992) - FLAC\CD 2\04 - The Scorpions - Hit Between The Eyes.wav
Pre-gap length 0:00:01.00
Peak level 79.6 % Extraction speed 1.5 X Track quality 100.0 % Test CRC 6E708385 Copy CRC 6E708385 Track not present in AccurateRip database Copy OK
Track 5
Filename C:\What\Eigen CD Rip\VA - Film Hits\VA - Film Hits (1992) - FLAC\CD 2\05 - James Brown - Living In America.wav
Pre-gap length 0:00:01.00
Peak level 91.5 % Extraction speed 1.7 X Track quality 100.0 % Test CRC DA1A6A8E Copy CRC DA1A6A8E Track not present in AccurateRip database Copy OK
Track 6
Filename C:\What\Eigen CD Rip\VA - Film Hits\VA - Film Hits (1992) - FLAC\CD 2\06 - The Righteous Brothers - Unchained Melody.wav
Pre-gap length 0:00:01.00
Peak level 95.9 % Extraction speed 1.5 X Track quality 99.9 % Test CRC 62CFDD72 Copy CRC 62CFDD72 Track not present in AccurateRip database Copy OK
Track 7
Filename C:\What\Eigen CD Rip\VA - Film Hits\VA - Film Hits (1992) - FLAC\CD 2\07 - Mike Oldfield - Tubular Bells.wav
Pre-gap length 0:00:01.42
Peak level 64.6 % Extraction speed 1.5 X Track quality 99.9 % Test CRC 02F325DF Copy CRC 02F325DF Track not present in AccurateRip database Copy OK
Track 8
Filename C:\What\Eigen CD Rip\VA - Film Hits\VA - Film Hits (1992) - FLAC\CD 2\08 - Survivor - Eye Of The Tiger.wav
Pre-gap length 0:00:01.66
Peak level 89.9 % Extraction speed 1.8 X Track quality 100.0 % Test CRC 888F8932 Copy CRC 888F8932 Track not present in AccurateRip database Copy OK
Track 9
Filename C:\What\Eigen CD Rip\VA - Film Hits\VA - Film Hits (1992) - FLAC\CD 2\09 - The Bangles - Hazy Shade Of Winter.wav
Peak level 90.3 % Extraction speed 1.5 X Track quality 99.9 % Test CRC F9A44A0D Copy CRC F9A44A0D Track not present in AccurateRip database Copy OK
Track 10
Filename C:\What\Eigen CD Rip\VA - Film Hits\VA - Film Hits (1992) - FLAC\CD 2\10 - Donna Summer - Love To Love You Baby.wav
Pre-gap length 0:00:01.66
Peak level 77.6 % Extraction speed 2.0 X Track quality 100.0 % Test CRC 979C462B Copy CRC 979C462B Track not present in AccurateRip database Copy OK
Track 11
Filename C:\What\Eigen CD Rip\VA - Film Hits\VA - Film Hits (1992) - FLAC\CD 2\11 - Lisa Hunt & Zucchero - Something Strong.wav
Pre-gap length 0:00:01.09
Peak level 99.2 % Extraction speed 2.1 X Track quality 100.0 % Test CRC 9C1F6B04 Copy CRC 9C1F6B04 Track not present in AccurateRip database Copy OK
Track 12
Filename C:\What\Eigen CD Rip\VA - Film Hits\VA - Film Hits (1992) - FLAC\CD 2\12 - Stewart Copeland - Don't box me in.wav
Pre-gap length 0:00:01.42
Peak level 99.2 % Extraction speed 2.0 X Track quality 99.9 % Test CRC 9506E7F7 Copy CRC 9506E7F7 Track not present in AccurateRip database Copy OK
Track 13
Filename C:\What\Eigen CD Rip\VA - Film Hits\VA - Film Hits (1992) - FLAC\CD 2\13 - Bronski Beat - Hit that Perfect Beat.wav
Pre-gap length 0:00:01.33
Peak level 99.2 % Extraction speed 2.2 X Track quality 100.0 % Test CRC 82181B63 Copy CRC 82181B63 Track not present in AccurateRip database Copy OK
Track 14
Filename C:\What\Eigen CD Rip\VA - Film Hits\VA - Film Hits (1992) - FLAC\CD 2\14 - Vangelis - Theme From Antartica.wav
Pre-gap length 0:00:01.29
Peak level 85.2 % Extraction speed 2.5 X Track quality 100.0 % Test CRC D870B598 Copy CRC D870B598 Track not present in AccurateRip database Copy OK
None of the tracks are present in the AccurateRip database
No errors occurred
End of status report
==== Log checksum 368AEB77733CAB146CF5EDF1573AA2E67AD7CA43FBF005D91CBAE78C29001D83 ====

Содержание индексной карты (.CUE)

REM GENRE SoundtrackREM DATE 1992REM DISCID C60E2D0EREM COMMENT "ExactAudioCopy v1.0b3"PERFORMER "Various"TITLE "Film Hits Disk 2"FILE "01 - John Travolta & Olivia Newton John - Grease Megamix.wav" WAVE TRACK 01 AUDIO TITLE "Grease Megamix" PERFORMER "John Travolta & Olivia Newton John" ISRC 000000000000 PREGAP 00:00:33 INDEX 01 00:00:00FILE "02 - Tina Turner - We Don't Need Another Hero.wav" WAVE TRACK 02 AUDIO TITLE "We Don't Need Another Hero" PERFORMER "Tina Turner" ISRC 000000000000 INDEX 01 00:00:00 TRACK 03 AUDIO TITLE "I Want Your Sex" PERFORMER "George Michael" ISRC 000000000000 INDEX 00 04:15:53FILE "03 - George Michael - I Want Your Sex.wav" WAVE INDEX 01 00:00:00 TRACK 04 AUDIO TITLE "Hit Between The Eyes" PERFORMER "The Scorpions" ISRC 000000000000 INDEX 00 04:42:25FILE "04 - The Scorpions - Hit Between The Eyes.wav" WAVE INDEX 01 00:00:00 TRACK 05 AUDIO TITLE "Living In America" PERFORMER "James Brown" ISRC 000000000000 INDEX 00 04:32:22FILE "05 - James Brown - Living In America.wav" WAVE INDEX 01 00:00:00 TRACK 06 AUDIO TITLE "Unchained Melody" PERFORMER "The Righteous Brothers" ISRC 000000000000 INDEX 00 04:43:00FILE "06 - The Righteous Brothers - Unchained Melody.wav" WAVE INDEX 01 00:00:00 TRACK 07 AUDIO TITLE "Tubular Bells" PERFORMER "Mike Oldfield" ISRC 000000000000 INDEX 00 03:36:28FILE "07 - Mike Oldfield - Tubular Bells.wav" WAVE INDEX 01 00:00:00 TRACK 08 AUDIO TITLE "Eye Of The Tiger" PERFORMER "Survivor" ISRC 000000000000 INDEX 00 03:05:43FILE "08 - Survivor - Eye Of The Tiger.wav" WAVE INDEX 01 00:00:00FILE "09 - The Bangles - Hazy Shade Of Winter.wav" WAVE TRACK 09 AUDIO TITLE "Hazy Shade Of Winter" PERFORMER "The Bangles" ISRC 000000000000 INDEX 01 00:00:00 TRACK 10 AUDIO TITLE "Love To Love You Baby" PERFORMER "Donna Summer" ISRC 000000000000 INDEX 00 02:47:00FILE "10 - Donna Summer - Love To Love You Baby.wav" WAVE INDEX 01 00:00:00 TRACK 11 AUDIO TITLE "Something Strong" PERFORMER "Lisa Hunt & Zucchero" ISRC 000000000000 INDEX 00 03:53:00FILE "11 - Lisa Hunt & Zucchero - Something Strong.wav" WAVE INDEX 01 00:00:00 TRACK 12 AUDIO TITLE "Don't box me in" PERFORMER "Stewart Copeland" ISRC 000000000000 INDEX 00 04:32:18FILE "12 - Stewart Copeland - Don't box me in.wav" WAVE INDEX 01 00:00:00 TRACK 13 AUDIO TITLE "Hit that Perfect Beat" PERFORMER "Bronski Beat" ISRC 000000000000 INDEX 00 04:34:18FILE "13 - Bronski Beat - Hit that Perfect Beat.wav" WAVE INDEX 01 00:00:00 TRACK 14 AUDIO TITLE "Theme From Antartica" PERFORMER "Vangelis" ISRC 000000000000 INDEX 00 03:28:25FILE "14 - Vangelis - Theme From Antartica.wav" WAVE INDEX 01 00:00:00

Лог проверки качества

-----------------------
DON'T MODIFY THIS FILE
-----------------------
PERFORMER: auCDtect Task Manager, ver. 1.6.0 RC1 build 1.6.0.1Copyright (c) 2008-2010 y-soft. All rights reservedhttp://y-soft.org
ANALYZER: auCDtect: CD records authenticity detector, version 0.8.2Copyright (c) 2004 Oleg Berngardt. All rights reserved.Copyright (c) 2004 Alexander Djourik. All rights reserved.
FILE: 01 - John Travolta & Olivia Newton John - Grease Megamix.flac Size: 30318195 Hash: 62FF3D90A6FFE99A2C7B1DAC6A0CA6EF Accuracy: -m0 Conclusion: CDDA 100% Signature: DBE27395DFF540D21018FB5F9B26722EC4DDDFDDFILE: 02 - Tina Turner - We Don't Need Another Hero.flac Size: 27064419 Hash: FF4839C5883C14FCB055BAD819E147B0 Accuracy: -m0 Conclusion: MPEG 95% Signature: 43F14FDBB6261530E3E28A15C6E0C9648CC55835FILE: 03 - George Michael - I Want Your Sex.flac Size: 30891113 Hash: 65697A30745D015635BB0C85011E49B5 Accuracy: -m0 Conclusion: MPEG 95% Signature: 960520EBA0D343D58574EFD9C1855DC76A016B43FILE: 04 - The Scorpions - Hit Between The Eyes.flac Size: 32436414 Hash: 088E2EC8D3AAD6B4A05A95866A9539E9 Accuracy: -m0 Conclusion: CDDA 100% Signature: 6633862A97B9E2D271E2F660AF0F449C4EB53716FILE: 05 - James Brown - Living In America.flac Size: 36013945 Hash: 0966CF35F425455D0331F8ABE90F4522 Accuracy: -m0 Conclusion: MPEG 95% Signature: A0DDEE3EF9564FDE4E8CB5633C9B3D1C6CE77A68FILE: 06 - The Righteous Brothers - Unchained Melody.flac Size: 20611491 Hash: 254E89A3B0C3DF25F83B83EB5DD4F6E4 Accuracy: -m0 Conclusion: CDDA 100% Signature: 90BC33D5CEAADA2437182F071468E9F97F725B3FFILE: 07 - Mike Oldfield - Tubular Bells.flac Size: 15810798 Hash: 6BE9B1E4C3D6FC42DF8FBA03D401F991 Accuracy: -m0 Conclusion: CDDA 87% Signature: CCCCC8105A2FD8BBC3353D40F1A98909D5DFFA3AFILE: 08 - Survivor - Eye Of The Tiger.flac Size: 25496511 Hash: 28A9320C59E9C6B09B4890504E1EACEA Accuracy: -m0 Conclusion: MPEG 95% Signature: 29670C3A14E247864B416CBF337E9014C1E8BCD2FILE: 09 - The Bangles - Hazy Shade Of Winter.flac Size: 19177431 Hash: 4E0134578EB68A4A34C890C564C650B7 Accuracy: -m0 Conclusion: CDDA 100% Signature: A8DF7E8057248825D138901AB654EC77CB2D729BFILE: 10 - Donna Summer - Love To Love You Baby.flac Size: 26823376 Hash: 16EB53944C45ADAFB05E0299E3C09569 Accuracy: -m0 Conclusion: CDDA 99% Signature: 38F622BC28B2AF0CACD10866226CD6DFCB34FB48FILE: 11 - Lisa Hunt & Zucchero - Something Strong.flac Size: 29810892 Hash: 31371B8ED2892B194C1910B45871B60B Accuracy: -m0 Conclusion: MPEG 95% Signature: F2F033F8E59B9E921F1CBF2F2C61A821C1E170D5FILE: 12 - Stewart Copeland - Don't box me in.flac Size: 23735952 Hash: 1337B3CD1AAF7FB29BE9133CF763C5ED Accuracy: -m0 Conclusion: MPEG 92% Signature: AE5BC070901EDB4A67770912C126585649E2CD9EFILE: 13 - Bronski Beat - Hit that Perfect Beat.flac Size: 22856854 Hash: F767AB80747745FE17BAC371FE9DC70D Accuracy: -m0 Conclusion: CDDA 100% Signature: 10F2BAF911C36455EE20291117956A3BE70CAE28FILE: 14 - Vangelis - Theme From Antartica.flac Size: 50923256 Hash: 5EF3683D3D77781FD11307965EAA06EF Accuracy: -m0 Conclusion: CDDA 100% Signature: 22B57E2F2CF9B471DD7DF38B02B265FF3CAFAD46
[teatrix.ru].t12572.torrent 
Торрент: Зарегистрирован [ 2016-01-04 21:20 ] · 26CE67A4B11FDE6FC73874D667B5212A6A31CC2B

Скачать .torrent

Скачать

17 KB

Статус: проверено
Скачан: 0 раз
Размер: 725 MB
terms.php



Быстрый ответ

Имя:

      
Для отправки сообщений необходимо включить JavaScript
Показать сообщения:    

Текущее время: 06-Дек 15:15

Часовой пояс: UTC + 3


Вы можете начинать темы
Вы можете отвечать на сообщения
Вы не можете редактировать свои сообщения
Вы не можете удалять свои сообщения
Вы не можете голосовать в опросах
Вы не можете прикреплять файлы к сообщениям
Вы можете скачивать файлы