[TR24][OF] James Ehnes - Bartok: Chamber Works for Violin, Volume 3 - 2014 (Classical/Chamber)


Статистика раздачи [Обновить пиров]
Размер:  1.17 GB   |    Зарегистрирован:  11 месяцев 6 дней   |    Скачан:  0 раз

Полного источника не было: Никогда

 
   
 
 
 

[Цитировать]

James Ehnes
Andrew Armstrong • Michael Collins • Amy Schwartz Moretti

Bela Bartok: Chamber Works for Violin, Volume 3
44 Duos • Contrasts • Sonatina
-Дата записи: 06.2013 • Год издания: 2014 • Длительность: 1:18:05
Жанр: Classical/Chamber • Лейбл: Chandos: CHAN10820
Контейнер: FLAC • Битрейт: lossless • Разрядность: 24/96
Источник: WEBСканы: Digital booklet
-01-03. Contrasts, BB 116
I. Verbunkos (Recruiting Dance): Moderato, ben ritmato |5:05| II. Pihenő (Relaxation): Lento |4:27| III. Sebes (Fast Dance): Allegro vivace |6:42|
04-06. Violin Sonatina, BB 102a (version by A. Gertier)
I. Dudások (Bagpipers): Allegretto |1:31| II. Medvetánc (Bear Dance): Moderato |0:40| III. Finale: Allegro vivace |2:08|
07-20. 44 Duos for 2 Violins, BB 104, Vol. 1
21-31. 44 Duos for 2 Violins, BB 104, Vol. 2
32-43. 44 Duos for 2 Violins, BB 104, Vol. 3
44-51. 44 Duos for 2 Violins, BB 104, Vol. 4
-Исполнители:
James Ehnes, violin | Andrew Armstrong, piano | Michael Collins, clarinet | Amy Schwartz Moretti, violin-Об исполнителе:Джеймс Энес - канадский скрипач. Родился 27 января 1976 года, в Брэндон, штат Манитоба. Сын трубача и музыкального педагога Алана Энеса, Джеймс Энес начал играть на скрипке в пятилетнем возрасте. В 1997 году окончил Джульярдскую школу, в том же году был удостоен в Канаде Премии Вирджинии Паркер лучшему молодому музыканту и с тех пор широко гастролирует по всему миру. Среди наиболее известных и признанных записей Энеса — 24 каприса Паганини и скрипичные концерты Моцарта. В репертуаре Энеса сочетаются произведения разных эпох, от Баха до таких авторов XX века, как Сэмюэл Барбер и Луиджи Даллапиккола. В 2008 году Энес получил премию «Грэмми» за концертный альбом, записанный с Ванкуверским симфоническим оркестром (дирижер Брамуэлл Тови). В 2010 году он был принят в члены Ордена Канады.-Об альбоме:
Джеймс Энес представляет третий диск с камерными работами Бартока, - два предыдущих тома и диск с выдающимся концертом укрепили его репутацию как серьёзного интерпретатора венгерского композитора. Здесь к скрипачу, кроме пианиста Эндрю Армстронга, присоединились скрипачка Эми Шварц Моретти и один из ведущих мировых кларнетистов Майкл Коллинз.
Сонатина, созданная Бартоком в 1915 году для фортепиано, была основана на мелодии, которая была записана среди прочих во время его экспидиции в Трансильванию. Транскрипцию для скрипки и фортепиано, представленную на диске, выпустил десять лет спустя его молодой ученик Эндре Гертлер.
В 1938 году Барток сочинил Контрасты для джазового кларнетиста Бенни Гудмана и скрипача Йожефа Сигети, который изначально попросил сделать двухчастное сочинение с каденциями - по одной для каждого инструмента. Выполняя эту просьбу, композитор добавил среднюю медленную часть Verbunkos, намекая на венгерский вербовочный марш.
Барток сочинял музыку не только для выдающихся музыкантов, но и для студентов. К таким сочинениям относятся 44 дуэта для двух скрипок. Эти коротенькие пьесы черпают материал из широчайшего спектра народных традиций и связывают стили и культуры различных народов
-

Лог проверки качества

foobar2000 1.3.9 / Замер динамического диапазона (DR) 1.1.1
Дата отчёта: 2016-01-04 19:35:50
--------------------------------------------------------------------------------
Анализ: James Ehnes, Amy Schwartz Moretti / Bartók: Chamber Works for Violin, Vol. 3 (1-45)
James Ehnes, Andrew Armstrong / Bartók: Chamber Works for Violin, Vol. 3 (46-48)
James Ehnes, Michael Collins, Andrew Armstrong / Bartók: Chamber Works for Violin, Vol. 3 (49-51)
--------------------------------------------------------------------------------
DR Пики RMS Продолжительность трека
--------------------------------------------------------------------------------
DR12 -13.39 дБ -32.45 дБ 0:59 07-44 Duos for 2 Violins, BB 104, Vol. 1: No. 1. Párosító (Teasing Song)
DR10 -17.84 дБ -32.68 дБ 0:41 08-44 Duos for 2 Violins, BB 104, Vol. 1: No. 2. Kalamajkó (Dance)
DR12 -14.75 дБ -30.41 дБ 1:01 09-44 Duos for 2 Violins, BB 104, Vol. 1: No. 3. Menuetto
DR11 -13.72 дБ -30.15 дБ 0:53 10-44 Duos for 2 Violins, BB 104, Vol. 1: No. 4. Szentivánéji (Summer Solstice Song)
DR11 -18.68 дБ -35.65 дБ 0:59 11-44 Duos for 2 Violins, BB 104, Vol. 1: No. 5. Tót nóta 1 (Slovakian Song 1)
DR12 -14.39 дБ -32.24 дБ 0:56 12-44 Duos for 2 Violins, BB 104, Vol. 1: No. 6. Magyar nóta (Hungarian Song)
DR12 -11.05 дБ -28.29 дБ 0:47 13-44 Duos for 2 Violins, BB 104, Vol. 1: No. 7. Oláh nóta (Romanian Song)
DR13 -11.44 дБ -31.32 дБ 0:57 14-44 Duos for 2 Violins, BB 104, Vol. 1: No. 8. Tót nóta 2 (Slovakian Song 2)
DR12 -13.30 дБ -29.86 дБ 0:45 15-44 Duos for 2 Violins, BB 104, Vol. 1: No. 9. Játék (Play)
DR11 -17.81 дБ -34.82 дБ 1:05 16-44 Duos for 2 Violins, BB 104, Vol. 1: No. 10. Rutén nóta (Ruthenian Song)
DR11 -11.44 дБ -30.63 дБ 1:17 17-44 Duos for 2 Violins, BB 104, Vol. 1: No. 11. Gyermekrengetéskor (Lullaby)
DR12 -23.49 дБ -40.55 дБ 0:56 18-44 Duos for 2 Violins, BB 104, Vol. 1: No. 12. Szénagyűjtéskor (Hay-harvesting Song)
DR11 -14.16 дБ -31.42 дБ 1:31 19-44 Duos for 2 Violins, BB 104, Vol. 1: No. 13. Lakodalmas (Wedding Song)
DR12 -8.50 дБ -28.41 дБ 0:57 20-44 Duos for 2 Violins, BB 104, Vol. 1: No. 14. Párnás tánc (Cushion Dance)
DR12 -14.26 дБ -30.09 дБ 1:03 21-44 Duos for 2 Violins, BB 104, Vol. 2: No. 15. Katonanóta (Soldier's Song)
DR14 -12.19 дБ -29.66 дБ 0:59 22-44 Duos for 2 Violins, BB 104, Vol. 2: No. 16. Burleszk (Burlesque)
DR12 -10.16 дБ -28.56 дБ 0:46 23-44 Duos for 2 Violins, BB 104, Vol. 2: No. 17. Menetelő nóta 1 (Marching Song 1)
DR12 -11.50 дБ -27.40 дБ 0:46 24-44 Duos for 2 Violins, BB 104, Vol. 2: No. 18. Menetelő nóta 2 (Marching Song 2)
DR13 -23.56 дБ -41.10 дБ 1:08 25-44 Duos for 2 Violins, BB 104, Vol. 2: No. 19. Mese (Fairy tale)
DR14 -11.13 дБ -33.56 дБ 1:28 26-44 Duos for 2 Violins, BB 104, Vol. 2: No. 20. Dal (Song)
DR12 -17.67 дБ -37.01 дБ 2:08 27-44 Duos for 2 Violins, BB 104, Vol. 2: No. 21. Ujévköszöntő 1 (New Year's Greeting 1)
DR15 -16.34 дБ -39.41 дБ 0:42 28-44 Duos for 2 Violins, BB 104, Vol. 2: No. 22. Szunyogtánc (Mosquito Dance)
DR13 -14.41 дБ -32.39 дБ 1:21 29-44 Duos for 2 Violins, BB 104, Vol. 2: No. 23. Menyasszonybúcsúztató (Wedding Song)
DR13 -12.17 дБ -32.41 дБ 0:45 30-44 Duos for 2 Violins, BB 104, Vol. 2: No. 24. Tréfás nóta (Gay Song)
DR12 -13.84 дБ -32.23 дБ 0:57 31-44 Duos for 2 Violins, BB 104, Vol. 2: No. 25. Magyar nóta 2 (Hungarian Song 2)
DR12 -13.81 дБ -30.94 дБ 0:30 32-44 Duos for 2 Violins, BB 104, Vol. 3: No. 26. ‘Ugyan édes komámasszony...' (Teasing Song)
DR12 -11.59 дБ -28.21 дБ 0:34 33-44 Duos for 2 Violins, BB 104, Vol. 3: No. 27. Sánta-tánc (Limping Dance)
DR14 -8.82 дБ -29.70 дБ 2:19 34-44 Duos for 2 Violins, BB 104, Vol. 3: No. 28. Bánkódás (Sorrow)
DR11 -14.17 дБ -29.83 дБ 0:44 35-44 Duos for 2 Violins, BB 104, Vol. 3: No. 29. Ujévköszöntő 2 (New Year's Greetings 2)
DR13 -10.96 дБ -28.08 дБ 0:52 36-44 Duos for 2 Violins, BB 104, Vol. 3: No. 30. Ujévköszöntő 3 (New Year's Greetings 3)
DR12 -10.96 дБ -28.34 дБ 0:42 37-44 Duos for 2 Violins, BB 104, Vol. 3: No. 31. Ujévköszöntő 4 (New Year's Greetings 4)
DR12 -9.98 дБ -27.06 дБ 0:44 38-44 Duos for 2 Violins, BB 104, Vol. 3: No. 32. Máramarosi tanc (Dance from Maramaros)
DR11 -12.67 дБ -30.21 дБ 1:31 39-44 Duos for 2 Violins, BB 104, Vol. 3: No. 33. Aratáskor (Harvest Song)
DR12 -12.04 дБ -28.90 дБ 0:58 40-44 Duos for 2 Violins, BB 104, Vol. 3: No. 34. Számláló nóta (Counting Song)
DR14 -10.34 дБ -29.13 дБ 1:04 41-44 Duos for 2 Violins, BB 104, Vol. 3: No. 35. Rutén kolomejka (Ruthenian Kolomejka)
DR14 -9.57 дБ -27.42 дБ 0:56 42-44 Duos for 2 Violins, BB 104, Vol. 3: No. 36. Szól a duda (Bagpipes)
DR13 -11.28 дБ -28.05 дБ 1:05 43-44 Duos for 2 Violins, BB 104, Vol. 3: No. 36. Szól a duda - 2 Valtozata (Bagpipes - 2nd Variation)
DR13 -12.71 дБ -33.15 дБ 2:41 44-44 Duos for 2 Violins, BB 104, Vol. 4: No. 37. Preludium és kánon (Prelude and Canon)
DR13 -8.77 дБ -28.52 дБ 0:42 45-44 Duos for 2 Violins, BB 104, Vol. 4: No. 38. Forgatós (Romanian Whirling Dance)
DR12 -12.80 дБ -29.08 дБ 0:50 46-44 Duos for 2 Violins, BB 104, Vol. 4: No. 39. Szerb tánc (Serbian Dance)
DR11 -12.62 дБ -27.78 дБ 0:50 47-44 Duos for 2 Violins, BB 104, Vol. 4: No. 40. Oláh tánc (Romanian Dance)
DR12 -9.22 дБ -26.95 дБ 0:52 48-44 Duos for 2 Violins, BB 104, Vol. 4: No. 41. Scherzo
DR13 -9.58 дБ -27.30 дБ 1:17 49-44 Duos for 2 Violins, BB 104, Vol. 4: No. 42. Arab dal (Arabian Song)
DR15 -12.40 дБ -40.49 дБ 1:14 50-44 Duos for 2 Violins, BB 104, Vol. 4: No. 43. Pizzicato
DR13 -8.61 дБ -26.21 дБ 1:51 51-44 Duos for 2 Violins, BB 104, Vol. 4: No. 44. ‘Erdélyi’ tánc (Transylvanian Dance)
DR12 -7.88 дБ -23.99 дБ 1:31 04-Violin Sonatina, BB 102a (version by A. Gertier): I. Dudások (Bagpipers): Allegretto
DR13 -7.73 дБ -26.80 дБ 0:40 05-Violin Sonatina, BB 102a (version by A. Gertier): II. Medvetánc (Bear Dance): Moderato
DR13 -5.09 дБ -23.91 дБ 2:08 06-Violin Sonatina, BB 102a (version by A. Gertier): III. Finale: Allegro vivace
DR15 -1.70 дБ -22.82 дБ 5:05 01-Contrasts, BB 116: I. Verbunkos (Recruiting Dance): Moderato, ben ritmato
DR14 -7.01 дБ -28.38 дБ 4:27 02-Contrasts, BB 116: II. Pihenő (Relaxation): Lento
DR14 -0.03 дБ -21.03 дБ 6:42 03-Contrasts, BB 116: III. Sebes (Fast Dance): Allegro vivace
--------------------------------------------------------------------------------
Количество треков: 51
Реальные значения DR: DR12
Частота: 96000 Гц
Каналов: 2
Разрядность: 24
Битрейт: 2489 кбит/с
Кодек: FLAC
================================================================================

Скриншот спектра частот

Track 04
[teatrix.ru].t12573.torrent 
Торрент: Зарегистрирован [ 2016-01-04 21:20 ] · F4FFA088673D88802168DB9D325B93F7A91189B5

Скачать .torrent

Скачать

18 KB

Статус: проверено
Скачан: 0 раз
Размер: 1.17 GB
terms.php



Быстрый ответ

Имя:

      
Для отправки сообщений необходимо включить JavaScript
Показать сообщения:    

Текущее время: 10-Дек 21:37

Часовой пояс: UTC + 3


Вы можете начинать темы
Вы можете отвечать на сообщения
Вы не можете редактировать свои сообщения
Вы не можете удалять свои сообщения
Вы не можете голосовать в опросах
Вы не можете прикреплять файлы к сообщениям
Вы можете скачивать файлы