[TR24][OF] James Ehnes - Bartok: Works for Violin and Piano, Volume 2 - 2013 (Classical/Chamber)


Статистика раздачи [Обновить пиров]
Размер:  869 MB   |    Зарегистрирован:  11 месяцев 3 дня   |    Скачан:  0 раз

Полного источника не было: Никогда

 
   
 
 
 

[Цитировать]

James Ehnes • Andrew Armstrong
Bela Bartok: Works for Violin and Piano, Volume 2
Sonatas and Folk Dances
-Дата записи: 02-04.06.2012 • Год издания: 2013 • Длительность: 1:18:05
Жанр: Classical/Chamber • Лейбл: Chandos: CHAN10752
Контейнер: FLAC • Битрейт: lossless • Разрядность: 24/96
Источник: WEBСканы: Digital booklet
-01-04. Violin Sonata, BB 124
I. Tempo di ciaccona |9:05| II. Fuga: Risoluto, non troppo vivo |4:19| III. Melodia: Adagio |7:14| IV. Presto |5:06|
05-07. Violin Sonata in E Minor, BB 28
I. Allegro moderato (molto rubato) |9:39| II. Andante |10:53| III. Vivace |9:32|
08-16. Hungarian Folksongs, BB 109 (arr. T. Orszagh)
No. 1. Andante - Un poco piu lento|1:31| No. 2. Allegretto|0:29| No. 3. Lento, ma non troppo|1:18| No. 4. Allegro|1:00| No. 5. Lento, poco rubato|1:36| No. 6. Allegretto|0:27| No. 7. Allegretto, scherzando|0:35| No. 8. Sostenuto - Allegro - Adagio |1:19| No. 9. Allegro robusto|0:59|
17-23. For Children, BB 53 (based on Hungarian folk tunes) (arr. J. Szigeti)
No. 1. Parlando|1:06| No. 2. Andante non molto|0:56| No. 3. Allegro vivace|1:35| No. 4. Andante sostenuto|1:32| No. 5. Allegro|0:42| No. 6. Andante|0:54| No. 7. Poco vivace|0:57|
24-29. Romanian Folk Dances, BB 68 (arr. Z. Szekely)
No. 1. Jocul cu bata (Stick Dance) |1:14| No. 2. Braul (Sash Dance) |0:27| No. 3. Pe loc (In One Place) |0:59| No. 4. Buciumeana (Horn Dance) |1:18| No. 5. Poarga Romaneasca (Romanian Polka) |0:30| No. 6. Maruntel (Fast Dance) |0:55|
-Исполнители:
James Ehnes, violin | Andrew Armstrong, piano-Об исполнителе:Джеймс Энес - канадский скрипач. Родился 27 января 1976 года, в Брэндон, штат Манитоба. Сын трубача и музыкального педагога Алана Энеса, Джеймс Энес начал играть на скрипке в пятилетнем возрасте. В 1997 году окончил Джульярдскую школу, в том же году был удостоен в Канаде Премии Вирджинии Паркер лучшему молодому музыканту и с тех пор широко гастролирует по всему миру. Среди наиболее известных и признанных записей Энеса — 24 каприса Паганини и скрипичные концерты Моцарта. В репертуаре Энеса сочетаются произведения разных эпох, от Баха до таких авторов XX века, как Сэмюэл Барбер и Луиджи Даллапиккола. В 2008 году Энес получил премию «Грэмми» за концертный альбом, записанный с Ванкуверским симфоническим оркестром (дирижер Брамуэлл Тови). В 2010 году он был принят в члены Ордена Канады.-Об альбоме:
Для второй скрипичной сонаты Барток черпал вдохновение в народном творчестве. Но, отступая от своего обычая, композитор посвящает её не венгерским товарищам, а исполнителю, родившемуся в Нью-Йорке, где Барток тогда жил: Иегуди Менухину. Будучи впечатлён сольным выступлением Менухина с первой скрипичной сонатой Баха, Барток без колебаний решил поручить ему сыграть свою сонату, которая, как и Баховская, исполняется без сопровождения.
Почти полвека назад Барток написал свою Ми минорную сонату для скрипки и фортепиано, которая была включена в концерт выпускников академии Ференца Листа. Один из критиков, даже не понимая насколько прав он окажется в дальнейшем, оценил Бартока как "юного гения, чьё имя сегодня известно лишь немногим, но которому суждено сыграть великую и блестящую роль в истории венгерской музыки".
Также на диске есть три сборника румынских и венгерских народных танцев, песен и мелодий в переложении для скрипки Золтана Секея и Йожефа Сигети, сделанные при участии композитора, помогавшего подстроить новые арранжировки.
Джеймс Энес также подчёркивает румынское влияние в Сонатине для фортепиано в переложении для скрипки Андре Гертлера, ученика Бартока
-James Ehnes - Bartok: Works for Violin and Piano, Volume 1
James Ehnes - Bartok: Works for Violin and Piano, Volume 2
James Ehnes - Bartok: Chamber Works for Violin, Volume 3

Лог проверки качества

foobar2000 1.3.9 / Замер динамического диапазона (DR) 1.1.1
Дата отчёта: 2016-01-04 18:36:33
--------------------------------------------------------------------------------
Анализ: James Ehnes, Andrew Armstrong / Bartok: Works for Violin and Piano, Vol. 2
--------------------------------------------------------------------------------
DR Пики RMS Продолжительность трека
--------------------------------------------------------------------------------
DR14 -13.43 дБ -33.15 дБ 9:05 01-Violin Sonata, BB 124: I. Tempo di ciaccona
DR15 -10.85 дБ -30.86 дБ 4:19 02-Violin Sonata, BB 124: II. Fuga: Risoluto, non troppo vivo
DR16 -20.23 дБ -42.43 дБ 7:14 03-Violin Sonata, BB 124: III. Melodia: Adagio
DR14 -15.07 дБ -34.18 дБ 5:06 04-Violin Sonata, BB 124: IV. Presto
DR15 -5.37 дБ -26.11 дБ 9:39 05-Violin Sonata in E Minor, BB 28: I. Allegro moderato (molto rubato)
DR14 -8.46 дБ -28.52 дБ 10:53 06-Violin Sonata in E Minor, BB 28: II. Andante
DR13 -8.16 дБ -25.55 дБ 9:32 07-Violin Sonata in E Minor, BB 28: III. Vivace
DR13 -11.08 дБ -30.03 дБ 1:31 08-Hungarian Folksongs, BB 109 (arr. T. Orszagh): No. 1. Andante - Un poco piu lento (arr. of For Children, Vol. 2, No. 34)
DR12 -12.70 дБ -29.50 дБ 0:29 09-Hungarian Folksongs, BB 109 (arr. T. Orszagh): No. 2. Allegretto (arr. of For Children, Vol. 2, No. 36)
DR13 -14.25 дБ -34.36 дБ 1:18 10-Hungarian Folksongs, BB 109 (arr. T. Orszagh): No. 3. Lento, ma non troppo (arr. of For Children, Vol. 1, No. 17)
DR13 -8.16 дБ -26.37 дБ 1:00 11-Hungarian Folksongs, BB 109 (arr. T. Orszagh): No. 4. Allegro (arr. of For Children, Vol. 2, No. 31)
DR13 -10.20 дБ -28.97 дБ 1:36 12-Hungarian Folksongs, BB 109 (arr. T. Orszagh): No. 5. Lento, poco rubato (arr. of For Children, Vol. 1, No. 16)
DR10 -10.42 дБ -31.17 дБ 0:27 13-Hungarian Folksongs, BB 109 (arr. T. Orszagh): No. 6. Allegretto (arr. of For Children, Vol. 1, No. 14)
DR11 -13.05 дБ -29.15 дБ 0:35 14-Hungarian Folksongs, BB 109 (arr. T. Orszagh): No. 7. Allegretto, scherzando (arr. of For Children, Vol. 1, No. 19)
DR13 -9.35 дБ -31.26 дБ 1:19 15-Hungarian Folksongs, BB 109 (arr. T. Orszagh): No. 8. Sostenuto - Allegro - Adagio (arr. of For Children, Vol. 1, No. 8)
DR12 -9.80 дБ -25.30 дБ 0:59 16-Hungarian Folksongs, BB 109 (arr. T. Orszagh): No. 9. Allegro robusto (arr. of For Children, Vol. 1, No. 21)
DR12 -12.99 дБ -32.37 дБ 1:06 17-For Children, BB 53 (based on Hungarian folk tunes) (arr. J. Szigeti): No. 1. Parlando (arr. of For Children, Vol. 2, No. 28)
DR11 -13.37 дБ -30.77 дБ 0:56 18-For Children, BB 53 (based on Hungarian folk tunes) (arr. J. Szigeti): No. 2. Andante non molto (arr. of For Children, Vol. 1, No. 18)
DR11 -10.66 дБ -27.39 дБ 1:35 19-For Children, BB 53 (based on Hungarian folk tunes) (arr. J. Szigeti): No. 3. Allegro vivace (arr. of For Children, Vol. 2, No. 42)
DR12 -17.66 дБ -35.94 дБ 1:32 20-For Children, BB 53 (based on Hungarian folk tunes) (arr. J. Szigeti): No. 4. Andante sostenuto (arr. of For Children, Vol. 2, No. 33)
DR11 -11.74 дБ -28.41 дБ 0:42 21-For Children, BB 53 (based on Hungarian folk tunes) (arr. J. Szigeti): No. 5. Allegro (arr. of For Children, Vol. 1, No. 6)
DR12 -19.71 дБ -38.41 дБ 0:54 22-For Children, BB 53 (based on Hungarian folk tunes) (arr. J. Szigeti): No. 6. Andante (arr. of For Children, Vol. 1, No. 13)
DR13 -9.99 дБ -26.54 дБ 0:57 23-For Children, BB 53 (based on Hungarian folk tunes) (arr. J. Szigeti): No. 7. Poco vivace (arr. of For Children, Vol. 2, No. 38)
DR13 -11.82 дБ -27.84 дБ 1:14 24-Romanian Folk Dances, BB 68 (arr. Z. Szekely): No. 1. Jocul cu bata (Stick Dance)
DR14 -18.00 дБ -35.40 дБ 0:27 25-Romanian Folk Dances, BB 68 (arr. Z. Szekely): No. 2. Braul (Sash Dance)
DR12 -27.00 дБ -45.96 дБ 0:59 26-Romanian Folk Dances, BB 68 (arr. Z. Szekely): No. 3. Pe loc (In One Place)
DR13 -12.12 дБ -29.92 дБ 1:18 27-Romanian Folk Dances, BB 68 (arr. Z. Szekely): No. 4. Buciumeana (Horn Dance)
DR13 -9.49 дБ -25.18 дБ 0:30 28-Romanian Folk Dances, BB 68 (arr. Z. Szekely): No. 5. Poarga Romaneasca (Romanian Polka)
DR12 -8.22 дБ -24.26 дБ 0:55 29-Romanian Folk Dances, BB 68 (arr. Z. Szekely): No. 6. Maruntel (Fast Dance)
--------------------------------------------------------------------------------
Количество треков: 29
Реальные значения DR: DR13
Частота: 96000 Гц
Каналов: 2
Разрядность: 24
Битрейт: 1678 кбит/с
Кодек: FLAC
================================================================================

Скриншот спектра частот

Track 06
[teatrix.ru].t12574.torrent 
Торрент: Зарегистрирован [ 2016-01-04 21:20 ] · 696520AA0D83ECB388702C9D6DDA09AF61AB315C

Скачать .torrent

Скачать

21 KB

Статус: проверено
Скачан: 0 раз
Размер: 869 MB
terms.php



Быстрый ответ

Имя:

      
Для отправки сообщений необходимо включить JavaScript
Показать сообщения:    

Текущее время: 08-Дек 05:18

Часовой пояс: UTC + 3


Вы можете начинать темы
Вы можете отвечать на сообщения
Вы не можете редактировать свои сообщения
Вы не можете удалять свои сообщения
Вы не можете голосовать в опросах
Вы не можете прикреплять файлы к сообщениям
Вы можете скачивать файлы