[TR24][OF] James Ehnes - Bartok: Works for Violin and Piano, Volume 1 - 2012 (Classical/Chamber)


Статистика раздачи [Обновить пиров]
Размер:  1.42 GB   |    Зарегистрирован:  11 месяцев 3 дня   |    Скачан:  0 раз

Полного источника не было: 7 месяцев 15 дней

 
   
 
 
 

[Цитировать]

James Ehnes • Andrew Armstrong
Bela Bartok: Works for Violin and Piano, Volume 1
Sonatas and Rhapsodies
-Дата записи: 01.06.2011 • Год издания: 2012 • Длительность: 01:23:52
Жанр: Classical/Chamber • Лейбл: Chandos: CHAN 10705
Контейнер: FLAC • Битрейт: lossless • Разрядность: 24/96
Источник: WEBСканы: Digital booklet
-01-03. Rhapsody No. 1 for Violin and Piano, BB 94a
I. Lassu: Moderato |4:31| II. Friss: Allegretto moderato - [Agitato] |5:55| II. Friss: Allegretto moderato (with alternative ending) |5:11|
04-05. Violin Sonata No. 2, BB 85
I. Molto moderato |8:30| II. Allegretto |11:37|
06-07. Rhapsody No. 2 for Violin and Piano, BB 96a
I. Lassu: Moderato |4:21| II. Friss: Allegro moderato |6:13|
08-10. Violin Sonata No. 1, BB 84
I. Allegro appassionato |12:25| II. Adagio |11:23| III. Allegro |9:47|
11. Andante in A major, BB 26b: Andante in A major, BB 26b |4:01|
-Исполнители:
James Ehnes, violin | Andrew Armstrong, piano-Об исполнителе:Джеймс Энес - канадский скрипач. Родился 27 января 1976 года, в Брэндон, штат Манитоба. Сын трубача и музыкального педагога Алана Энеса, Джеймс Энес начал играть на скрипке в пятилетнем возрасте. В 1997 году окончил Джульярдскую школу, в том же году был удостоен в Канаде Премии Вирджинии Паркер лучшему молодому музыканту и с тех пор широко гастролирует по всему миру. Среди наиболее известных и признанных записей Энеса — 24 каприса Паганини и скрипичные концерты Моцарта. В репертуаре Энеса сочетаются произведения разных эпох, от Баха до таких авторов XX века, как Сэмюэл Барбер и Луиджи Даллапиккола. В 2008 году Энес получил премию «Грэмми» за концертный альбом, записанный с Ванкуверским симфоническим оркестром (дирижер Брамуэлл Тови). В 2010 году он был принят в члены Ордена Канады.-Об альбоме:
На этой записи Джеймс Энес обращается к скрипичным сонатам и рапсодиям Бартока, дополняя их Аданте - одной из самых ранних сохранившихся работа композитора. Аккомпанирует ему Эндрю Армстронг. Сонаты для скрипки и фортепиано были созданы в 1921-22 годах, примерно когда была окончена партитура "Чудесный мандарин". До-диез минорная соната более традиционна по структуре, весёлая по настроению, временами бурная и виртуозная. Финал представляет собой серию диких танцев, по стилистике народных, но, в то же время, экспрессионистских. В До мажорной сонате Барток отходит от классической формы и традиционного использования тональности, призывая скрипача дистанцироваться от романической манеры игры. Так, в некоторых местах скрипка играет нон-вибрато, создавая невесомо холодное и далёкое звучание. Также сильна импровизаторская сторона работы, в которой тихие и задумчивые части чередуются с бурными и резкими. Концовка же эмоциональна и выразительна. Две рапсодии, посвящённые Йожефу Сигети и Золтану Секею, берут свои корни из венгерской народной музыки. Буйные и заразительные, работы вдохновлены чардашем, народным венгерским танцем, состоящим из лашша - медленной части, и фриш - оживлённой.
-

Лог проверки качества

foobar2000 1.3.9 / Замер динамического диапазона (DR) 1.1.1
Дата отчёта: 2016-01-04 18:17:01
--------------------------------------------------------------------------------
Анализ: James Ehnes, Andrew Armstrong / Bartók: Works for Violin and Piano, Vol. 1
--------------------------------------------------------------------------------
DR Пики RMS Продолжительность трека
--------------------------------------------------------------------------------
DR15 -5.48 дБ -24.48 дБ 4:31 01-Rhapsody No. 1 for Violin and Piano, BB 94a: I. Lassu: Moderato
DR13 -3.90 дБ -24.26 дБ 5:55 02-Rhapsody No. 1 for Violin and Piano, BB 94a: II. Friss: Allegretto moderato - [Agitato]
DR15 -3.90 дБ -24.03 дБ 5:11 03-Rhapsody No. 1 for Violin and Piano, BB 94a: II. Friss: Allegretto moderato (with alternative ending)
DR17 -3.84 дБ -27.43 дБ 8:30 04-Violin Sonata No. 2, BB 85: I. Molto moderato
DR15 -1.13 дБ -22.81 дБ 11:37 05-Violin Sonata No. 2, BB 85: II. Allegretto
DR12 -5.52 дБ -23.14 дБ 4:21 06-Rhapsody No. 2 for Violin and Piano, BB 96a: I. Lassu: Moderato
DR14 -4.90 дБ -23.44 дБ 6:13 07-Rhapsody No. 2 for Violin and Piano, BB 96a: II. Friss: Allegro moderato
DR16 -1.97 дБ -25.08 дБ 12:25 08-Violin Sonata No. 1, BB 84: I. Allegro appassionato
DR16 -10.66 дБ -33.07 дБ 11:23 09-Violin Sonata No. 1, BB 84: II. Adagio
DR15 -2.27 дБ -22.34 дБ 9:47 10-Violin Sonata No. 1, BB 84: III. Allegro
DR14 -7.46 дБ -28.58 дБ 4:01 11-Andante in A major, BB 26b: Andante in A major, BB 26b
--------------------------------------------------------------------------------
Количество треков: 11
Реальные значения DR: DR15
Частота: 96000 Гц
Каналов: 2
Разрядность: 24
Битрейт: 2362 кбит/с
Кодек: FLAC
================================================================================

Скриншот спектра частот

Track 03-Rhapsody
[teatrix.ru].t12576.torrent 
Торрент: Зарегистрирован [ 2016-01-04 21:20 ] · FBEB151A68CEA607128167239C77CB09E5623BE2

Скачать .torrent

Скачать

16 KB

Статус: проверено
Скачан: 0 раз
Размер: 1.42 GB
terms.php



Быстрый ответ

Имя:

      
Для отправки сообщений необходимо включить JavaScript
Показать сообщения:    

Текущее время: 08-Дек 07:03

Часовой пояс: UTC + 3


Вы можете начинать темы
Вы можете отвечать на сообщения
Вы не можете редактировать свои сообщения
Вы не можете удалять свои сообщения
Вы не можете голосовать в опросах
Вы не можете прикреплять файлы к сообщениям
Вы можете скачивать файлы