Муми-Тролль и шляпа волшебника (Юрий Алесин) [2012 г., Сказка, WEB-DLRip] Калининградский областной драматический театр


 

[Цитировать]

Муми-Тролль и шляпа волшебника Название театра: Калининградский областной драматический театр.
Год выпуска: 2012.
Жанр: Сказка для детей.
Продолжительность: 01:04:36.
Режиссер-постановщик: Юрий Алесин (Москва).
Действующие лица и исполнители:
Муми-Тролль - Алексей Переберин,
Снусмумрик - Павел Ботвиновский,
Волшебник - Александр Федоренко,
Муми – папа - Алексей Грызунов,
Муми – мама - Людмила Зиновьева,
Тофсла - Анастасия Сапачева,
Вифсла - Татьяна Рогачева,
Фрекен Снорк - Надежда Шецко,
Сниф - Антон Захаров.
О спектакле:
Сказочный спектакль по произведениям Туве Янссона для детей старше 5 лет.
Дополнительная информация:
Страна: Россия .
Автор: Туве Янссон.
Художник-постановщик: Кирилл Петровский (Москва).
Художник по свету: Людмила Воронина.
Премьера спектакля состоялась 26 декабря 2012 года.

О спектакле.
Релиз
Рип sharky.

Качество видео:...WEB-DLRip
Формат:.................AVI
Видео:..704x400 (1.76:1), 25 fps, DivX Codec 4.x ~1475 kbps avg, 0.21 bit/pixel
Аудио:..44.100 kHz, MPEG Layer 3, 2 ch, ~128.00 kbps avg

Отчет MI

Общее
Полное имя : Mumi-Trol'.i.shlyapa.volshebnika_Kaliningradskij.ODT.2012.DivX.WEB-DLRip.fenixclub.avi
Format : AVI
Format/Info : Audio Video Interleave
File size : 745 MiB
Duration : 1h 4mn
Overall bit rate : 1 613 Kbps
Video
ID : 0
Format : MPEG-4 Visual
Format settings, BVOP : 1
Format settings, QPel : No
Format settings, GMC : No warppoints
Format settings, Matrix : Default (H.263)
Codec ID : DX50
Codec ID/Hint : DivX 5
Duration : 1h 4mn
Bit rate : 1 475 Kbps
Width : 704 pixels
Height : 400 pixels
Display aspect ratio : 16:9
Frame rate : 25.000 fps
Color space : YUV
Chroma subsampling : 4:2:0
Bit depth : 8 bits
Scan type : Progressive
Compression mode : Lossy
Bits/(Pixel*Frame) : 0.210
Stream size : 682 MiB (91%)
Title : Video
Writing library : DivX 3013
Audio
ID : 1
Format : MPEG Audio
Format version : Version 1
Format profile : Layer 3
Codec ID : 55
Codec ID/Hint : MP3
Duration : 1h 4mn
Bit rate mode : Constant
Bit rate : 128 Kbps
Channel(s) : 2 channels
Sampling rate : 44.1 KHz
Compression mode : Lossy
Stream size : 59.1 MiB (8%)
Alignment : Split accross interleaves
Interleave, duration : 40 ms (1.00 video frame)
Interleave, preload duratio : 500 ms
Title : Audio

Скриншоты


Альтернативный хост





Показать сообщения:    

Текущее время: 03-Дек 22:47

Часовой пояс: UTC + 3


Вы не можете начинать темы
Вы не можете отвечать на сообщения
Вы не можете редактировать свои сообщения
Вы не можете удалять свои сообщения
Вы не можете голосовать в опросах
Вы не можете прикреплять файлы к сообщениям
Вы не можете скачивать файлы