Cherches La Femme, или Ключ для двоих (Михаил Салес) [2010 г., Комедия, WEB-DLRip] Калининградский областной драматический театр


 

[Цитировать]

Cherches La Femme, или Ключ для двоих Название театра: Калининградский областной драматический театр.
Год выпуска: 2010.
Жанр: Комедия для взрослых.
Продолжительность: 02:01:22.
Режиссер-постановщик: народный артист России Михаил Салес.
Действующие лица и исполнители:
Гордон - Алексей Переберин,
Хэриет - Наталья Салес,
Алекс - Александр Федоренко,
Энн - Марина Минакова,
Ричард - Виталий Баженов,
Магда - Галина Лукина,
Милдред - Людмила Зиновьева.
О спектакле:
Как известно, всем мужчинам от женщины нужно только одно. Однако, самой женщине нужно от них гораздо больше! Поэтому умной, красивой, но временно незамужней Хэриет приходится водить за нос сразу двоих или даже троих. А, впрочем, их может быть столько, сколько поместится в ее уютной английской квартирке, где так много дверей, что никогда не угадаешь, кто там окажется в следующую минуту: Здесь двери всегда открыты, но не так-то просто подобрать ключик к двум своенравным подругам! Веселая, динамичная, полная фарсовых ситуаций современная западная комедия с задушевным российским подтекстом, который вкладывают в нее актеры калининградского театра.
Дополнительная информация:
Страна: Россия .
Авторы: Дейв Фримен и Джон Чепмен.
Перевод: Валентин Хитрово-Шмыров.
Режиссер-постановщик и музыкальное оформление: народный артист России Михаил Салес.
Художник-постановщик: Владимир Козлов.
Художник по костюмам: Татьяна Старикова.
Премьера спектакля состоялась 20 ноября 2010 года.

О спектакле.
Релиз
Рип sharky.

Качество видео:...WEB-DLRip
Формат:.................AVI
Видео:..704x384 (1.83:1), 25 fps, XviD build 47 ~1573 kbps avg, 0.23 bit/pixel
Аудио:..44.100 kHz, MPEG Layer 3, 2 ch, ~128.00 kbps avg

Отчет MI

Общее
Полное имя : Shershe.lya.Fam.ili.Klyuch.dlya.dvoih_Kaliningradskij.ODT.2010.XviD.WEB-DLRip.fenixclub.avi
Format : AVI
Format/Info : Audio Video Interleave
File size : 1.45 GiB
Duration : 2h 1mn
Overall bit rate : 1 712 Kbps
Writing application : VirtualDubMod 1.5.10.2 (build 2540/release)
Writing library : VirtualDubMod build 2540/release
Video
ID : 0
Format : MPEG-4 Visual
Format profile : Advanced Simple@L5
Format settings, BVOP : 1
Format settings, QPel : No
Format settings, GMC : No warppoints
Format settings, Matrix : Default (H.263)
Codec ID : XVID
Codec ID/Hint : XviD
Duration : 2h 1mn
Bit rate : 1 574 Kbps
Width : 704 pixels
Height : 384 pixels
Display aspect ratio : 1.85:1
Frame rate : 25.000 fps
Color space : YUV
Chroma subsampling : 4:2:0
Bit depth : 8 bits
Scan type : Progressive
Compression mode : Lossy
Bits/(Pixel*Frame) : 0.233
Stream size : 1.33 GiB (92%)
Writing library : XviD 1.2.0.dev47 (UTC 2006-11-01)
Audio
ID : 1
Format : MPEG Audio
Format version : Version 1
Format profile : Layer 3
Codec ID : 55
Codec ID/Hint : MP3
Duration : 2h 1mn
Bit rate mode : Constant
Bit rate : 128 Kbps
Channel(s) : 2 channels
Sampling rate : 44.1 KHz
Compression mode : Lossy
Stream size : 111 MiB (7%)
Alignment : Split accross interleaves
Interleave, duration : 40 ms (1.00 video frame)
Interleave, preload duratio : 500 ms
Writing library : LAME3.97
Encoding settings : -m s -V 4 -q 2 -lowpass 17 -b 128

Скриншоты


Альтернативный хост





Показать сообщения:    

Текущее время: 05-Дек 07:27

Часовой пояс: UTC + 3


Вы не можете начинать темы
Вы не можете отвечать на сообщения
Вы не можете редактировать свои сообщения
Вы не можете удалять свои сообщения
Вы не можете голосовать в опросах
Вы не можете прикреплять файлы к сообщениям
Вы не можете скачивать файлы