Semperoper New Year's Eve Concert of Staatskapelle Dresden / Новогодний гала-концерт ( Christian Thielemann, Lang Lang , Rinat Shaham, Lucas Meachem) [2015, Classical, HDTV 720p]



Semperoper New Year's Eve Concert of Staatskapelle Dresden / Новогодний гала-концерт
Год выпуска: 2015
Жанр: Classical
Продолжительность: 01:31:35
Язык: Немецкий
Перевод: Нет
Субтитры: Нет
Дирижёр: Christian Thielemann
Исполнители: Lang Lang (piano), Rinat Shaham (soprano), Lucas Meachem (tenor)
Edward Grieg
Piano Concerto in a minor, Opus 16 (1868)
1. Allegro molto moderato
2. Adagio
3. Allegro moderato molto e marcato

George Gershwin

Overture to »Oh, Kay!«, Symphonic Version
»Embraceable You« aus »Girl Crazy« (Rinat Shaham)
»Lady Be Good« (Lucas Meachem)
»Rhapsody in Blue«
Leonard Bernstein
»Times Square« aus »On The Town«
Cole Porter
»I Love Paris« aus »Can-Can« (Lucas Meachem)
Herman Hupfeld
»As Time Goes By« from »Everybody’s Welcome« (Rinat Shaham)
Leonard Bernstein
Ouvertüre zu »Wonderful Town«
Cole Porter
»Wunderbar« aus »Kiss Me, Kate« (Rinat Shaham, Lucas Meachem)
Leonard Bernstein
»Mambo« aus den »Symphonic Dances from West Side Story«
Качество видео: HDTV 720p
Формат/Контейнер: TS
Видео кодек: H.264
Аудио кодек: AC3
Видео поток: AVC, 1280x720 (16:9), 50.000 fps, 12.1 Mbps
Аудио поток: AC-3, 48.0 KHz, 6 ch, 448 Kbps


GeneralID : 1011 (0x3F3)Complete name : Z:\Semperoper New Year's Eve Concert 2015 720p HDTV H.264 DD5.1-rem.tsFormat : MPEG-TSFile size : 8.47 GiBDuration : 1h 31mnOverall bit rate mode : VariableOverall bit rate : 13.2 Mbps
VideoID : 6110 (0x17DE)Menu ID : 11110 (0x2B66)Format : AVCFormat/Info : Advanced Video CodecFormat profile : High@L4Format settings, CABAC : YesFormat settings, ReFrames : 6 framesCodec ID : 27Duration : 1h 31mnBit rate : 12.1 MbpsWidth : 1 280 pixelsHeight : 720 pixelsDisplay aspect ratio : 16:9Frame rate : 50.000 fpsColor space : YUVChroma subsampling : 4:2:0Bit depth : 8 bitsScan type : ProgressiveBits/(Pixel*Frame) : 0.263Stream size : 7.76 GiB (92%)Color range : LimitedColor primaries : BT.709Transfer characteristics : BT.709Matrix coefficients : BT.709
AudioID : 6122 (0x17EA)Menu ID : 11110 (0x2B66)Format : AC-3Format/Info : Audio Coding 3Mode extension : CM (complete main)Format settings, Endianness : BigCodec ID : 6Duration : 1h 31mnBit rate mode : ConstantBit rate : 448 KbpsChannel(s) : 6 channelsChannel positions : Front: L C R, Side: L R, LFESampling rate : 48.0 KHzCompression mode : LossyDelay relative to video : 120msStream size : 293 MiB (3%)Language : German

Display posts:    

Current time is: 27-Oct 19:46

All times are UTC + 3

You cannot post new topics in this forum
You cannot reply to topics in this forum
You cannot edit your posts in this forum
You cannot delete your posts in this forum
You cannot vote in polls in this forum
You cannot attach files in this forum
You cannot download files in this forum