(Classical, 20th century) Bruno Maderna - Complete Works for Orchestra, Vol.4 - Frankfurt Radio Symphony Orchestra, Arturo Tamayo - 2010, FLAC (image+.cue) lossless


 

[Цитировать]

Bruno Maderna - Complete Works for Orchestra, Vol.4 - Frankfurt Radio Symphony Orchestra, Arturo Tamayo
Жанр: Classical, 20th century
Страна-производитель диска: Germany
Год издания диска: 2010
Издатель (лейбл): NEOS Music
Номер по каталогу: NEOS 10936
Дата записи: 2006, 2007
Аудиокодек: FLAC
Тип рипа: image+.cue
Битрейт аудио: lossless
Продолжительность: 78:08
Источник: собственный рип
Наличие сканов в содержимом раздачи: да
Треклист:
Bruno Maderna (1920-1973)
[1] Quadrivium
for four percussionists and four orchestra groups (1969)
[2] Aura
for orchestra (1972)
[3] Amanda
for chamber orchestra (1966)
[4] Giardino religioso
for small orchestra (1972)
Исполнители:
Frankfurt Radio Symphony Orchestra
Arturo Tamayo

Лог создания рипа

Exact Audio Copy V1.1 from 23. June 2015
EAC extraction logfile from 23. October 2015, 23:20
Frankfurt RSO, Arturo Tamayo / Maderna - Complete Works for Orchestra, Vol.4
Used drive : HL-DT-STDVDRAM GU70N Adapter: 1 ID: 0
Read mode : SecureUtilize accurate stream : YesDefeat audio cache : YesMake use of C2 pointers : No
Read offset correction : 48Overread into Lead-In and Lead-Out : NoFill up missing offset samples with silence : YesDelete leading and trailing silent blocks : NoNull samples used in CRC calculations : YesUsed interface : Native Win32 interface for Win NT & 2000
Used output format : User Defined EncoderSelected bitrate : 128 kBit/sQuality : HighAdd ID3 tag : NoCommand line compressor : C:\Program Files (x86)\Exact Audio Copy\Flac\flac.exeAdditional command line options : -V -8 -T "Date=%year%" -T "Genre=%genre%" %source%
TOC of the extracted CD
Track | Start | Length | Start sector | End sector --------------------------------------------------------- 1 | 0:00.00 | 27:42.35 | 0 | 124684 2 | 27:42.35 | 16:30.14 | 124685 | 198948 3 | 44:12.49 | 13:18.42 | 198949 | 258840 4 | 57:31.16 | 20:35.01 | 258841 | 351466
Range status and errors
Selected range
Filename C:\temp\Maderna - Complete Works for Orchestra, Vol.4\Maderna - Complete Works for Orchestra, Vol.4.wav
Peak level 98.8 % Extraction speed 2.3 X Range quality 100.0 % Test CRC FD2015F5 Copy CRC FD2015F5 Copy OK
No errors occurred
AccurateRip summary
Track 1 accurately ripped (confidence 3) [447CAA40] (AR v2)Track 2 accurately ripped (confidence 3) [E035653E] (AR v2)Track 3 accurately ripped (confidence 3) [A453EAA5] (AR v2)Track 4 accurately ripped (confidence 3) [62852403] (AR v2)
All tracks accurately ripped
End of status report
==== Log checksum 8CD30FECC889A296D331ACEEB9BBCC46229501B3F48BD57342EF6E81ED02CA51 ====



Показать сообщения:    

Текущее время: 05-Дек 13:33

Часовой пояс: UTC + 3


Вы не можете начинать темы
Вы не можете отвечать на сообщения
Вы не можете редактировать свои сообщения
Вы не можете удалять свои сообщения
Вы не можете голосовать в опросах
Вы не можете прикреплять файлы к сообщениям
Вы не можете скачивать файлы