(Classical/Solo/Cello) Johann Sebastian Bach: 6 Suites a Violoncello Solo senza Basso (Bruno Cocset) [Alpha] - 2001, FLAC (tracks+.cue) lossless


 

[Цитировать]

Bruno Cocset
Johann Sebastian Bach: 6 Suites a Violoncello Solo senza Basso-Год издания: 2001 • Длительность: 02:09:03
Жанр:Classical/Cello/Baroque • Лейбл: Alpha • : ALPHA029
Кодек: FLAC • Битрейт: lossless • Тип рипа: tracks+.cue
Источник: what.cd • Сканы: отсутствуют
-01-06. Suite No.1 (BWV 1007) en sol majeur
07-12. Suite No.2 (BWV 1008) en ré mineur
13-18. Suite No.3 (BWV 1009) en ut majeur
01-06. Suite No.4 (BWV 1010) en mi bémol majeur
07-12. Suite No.5 (BWV 1011) en ut mineur
13-18. Suite No.6 (BWV 1012) en ré majeur
-Bruno Cocset, cello-Об исполнителе:Bruno Cocset (род. 1963, Франция) на сегодня один из самых влиятельных барочных виолончелистов. Окончив консерваторию продолжал обучению у Аннер Билсма, Япа Шрёдера и Кристофа Койна. Работал с самыми известными аутентичными ансамблями Европы, записываясь в основном с Le Concert des Nations Жорди Саваля до того, как создал свой собственный барочный ансамбль Les Basses Réunies. Бруно славится "спасением" забытых композиторов таких как Жан-Батиста Баре или Эваристо Феличе Даль Абако, и двумя новаторскими записями обширных сборников, включая сюиты для виолончели И.С. Баха и виолончельные концерты и сонаты Вивальди.

LogsСодержание индексной карты - CD1

REM GENRE Classical
REM DATE 2001
REM DISCID 110D0A12
REM COMMENT "ExactAudioCopy v1.0b3"
CATALOG 0000000000000
PERFORMER "Bruno Cocset"
TITLE "Suites a Violoncello Solo senza Basso - CD1"
FILE "01 Suite N° 1 (BWV 1007) en sol majeur -- I- Prйlude.wav" WAVE
TRACK 01 AUDIO
TITLE "Suite N° 1 (BWV 1007) en sol majeur -- I- Prйlude"
PERFORMER "Bruno Cocset"
INDEX 01 00:00:00
FILE "02 II- Allemande.wav" WAVE
TRACK 02 AUDIO
TITLE "II- Allemande"
PERFORMER "Bruno Cocset"
INDEX 01 00:00:00
FILE "03 III- Courante.wav" WAVE
TRACK 03 AUDIO
TITLE "III- Courante"
PERFORMER "Bruno Cocset"
INDEX 01 00:00:00
FILE "04 IV- Sarabande.wav" WAVE
TRACK 04 AUDIO
TITLE "IV- Sarabande"
PERFORMER "Bruno Cocset"
INDEX 01 00:00:00
FILE "05 V- Menuets I & II.wav" WAVE
TRACK 05 AUDIO
TITLE "V- Menuets I & II"
PERFORMER "Bruno Cocset"
INDEX 01 00:00:00
FILE "06 VI- Gigue.wav" WAVE
TRACK 06 AUDIO
TITLE "VI- Gigue"
PERFORMER "Bruno Cocset"
INDEX 01 00:00:00
TRACK 07 AUDIO
TITLE "Suite N° 2 (BWV 1008) en rй mineur -- I- Prйlude"
PERFORMER "Bruno Cocset"
INDEX 00 01:29:03
FILE "07 Suite N° 2 (BWV 1008) en rй mineur -- I- Prйlude.wav" WAVE
INDEX 01 00:00:00
FILE "08 II- Allemande.wav" WAVE
TRACK 08 AUDIO
TITLE "II- Allemande"
PERFORMER "Bruno Cocset"
INDEX 01 00:00:00
FILE "09 III- Courante.wav" WAVE
TRACK 09 AUDIO
TITLE "III- Courante"
PERFORMER "Bruno Cocset"
INDEX 01 00:00:00
FILE "10 IV- Sarabande.wav" WAVE
TRACK 10 AUDIO
TITLE "IV- Sarabande"
PERFORMER "Bruno Cocset"
INDEX 01 00:00:00
FILE "11 V- Menuets I & II.wav" WAVE
TRACK 11 AUDIO
TITLE "V- Menuets I & II"
PERFORMER "Bruno Cocset"
INDEX 01 00:00:00
FILE "12 VI- Gigue.wav" WAVE
TRACK 12 AUDIO
TITLE "VI- Gigue"
PERFORMER "Bruno Cocset"
INDEX 01 00:00:00
TRACK 13 AUDIO
TITLE "Suite N° 3 (BWV 1009) en ut majeur -- I- Prйlude"
PERFORMER "Bruno Cocset"
INDEX 00 02:26:65
FILE "13 Suite N° 3 (BWV 1009) en ut majeur -- I- Prйlude.wav" WAVE
INDEX 01 00:00:00
FILE "14 II- Allemande.wav" WAVE
TRACK 14 AUDIO
TITLE "II- Allemande"
PERFORMER "Bruno Cocset"
INDEX 01 00:00:00
FILE "15 III- Courante.wav" WAVE
TRACK 15 AUDIO
TITLE "III- Courante"
PERFORMER "Bruno Cocset"
INDEX 01 00:00:00
FILE "16 IV- Sarabande.wav" WAVE
TRACK 16 AUDIO
TITLE "IV- Sarabande"
PERFORMER "Bruno Cocset"
INDEX 01 00:00:00
FILE "17 V- Bourrйes I & II.wav" WAVE
TRACK 17 AUDIO
TITLE "V- Bourrйes I & II"
PERFORMER "Bruno Cocset"
INDEX 01 00:00:00
FILE "18 VI- Gigue.wav" WAVE
TRACK 18 AUDIO
TITLE "VI- Gigue"
PERFORMER "Bruno Cocset"
INDEX 01 00:00:00

Содержание индексной карты - CD2

REM GENRE Classical
REM DATE 2001
REM DISCID F3113412
REM COMMENT "ExactAudioCopy v1.0b3"
CATALOG 0000000000000
PERFORMER "Bruno Cocset"
TITLE "Suites a Violoncello Solo senza Basso - CD2"
FILE "01 Suite N° 4 (BWV 1010) en mi bйmol majeur -- I- Prйlude.wav" WAVE
TRACK 01 AUDIO
TITLE "Suite N° 4 (BWV 1010) en mi bйmol majeur -- I- Prйlude"
PERFORMER "Bruno Cocset"
INDEX 01 00:00:00
FILE "02 II- Allemande.wav" WAVE
TRACK 02 AUDIO
TITLE "II- Allemande"
PERFORMER "Bruno Cocset"
INDEX 01 00:00:00
FILE "03 III- Courante.wav" WAVE
TRACK 03 AUDIO
TITLE "III- Courante"
PERFORMER "Bruno Cocset"
INDEX 01 00:00:00
FILE "04 IV- Sarabande.wav" WAVE
TRACK 04 AUDIO
TITLE "IV- Sarabande"
PERFORMER "Bruno Cocset"
INDEX 01 00:00:00
FILE "05 V- Bourrйes I & II.wav" WAVE
TRACK 05 AUDIO
TITLE "V- Bourrйes I & II"
PERFORMER "Bruno Cocset"
INDEX 01 00:00:00
FILE "06 VI- Gigue.wav" WAVE
TRACK 06 AUDIO
TITLE "VI- Gigue"
PERFORMER "Bruno Cocset"
INDEX 01 00:00:00
TRACK 07 AUDIO
TITLE "Suite N° 5 (BWV 1011) en ut mineur -- I- Prйlude"
PERFORMER "Bruno Cocset"
INDEX 00 02:49:43
FILE "07 Suite N° 5 (BWV 1011) en ut mineur -- I- Prйlude.wav" WAVE
INDEX 01 00:00:00
FILE "08 II- Allemande.wav" WAVE
TRACK 08 AUDIO
TITLE "II- Allemande"
PERFORMER "Bruno Cocset"
INDEX 01 00:00:00
FILE "09 III- Courante.wav" WAVE
TRACK 09 AUDIO
TITLE "III- Courante"
PERFORMER "Bruno Cocset"
INDEX 01 00:00:00
FILE "10 IV- Sarabande.wav" WAVE
TRACK 10 AUDIO
TITLE "IV- Sarabande"
PERFORMER "Bruno Cocset"
INDEX 01 00:00:00
FILE "11 V- Gavottes I & II.wav" WAVE
TRACK 11 AUDIO
TITLE "V- Gavottes I & II"
PERFORMER "Bruno Cocset"
INDEX 01 00:00:00
FILE "12 VI- Gigue.wav" WAVE
TRACK 12 AUDIO
TITLE "VI- Gigue"
PERFORMER "Bruno Cocset"
INDEX 01 00:00:00
TRACK 13 AUDIO
TITLE "Suite N° 6 (BWV 1012) en rй majeur -- I- Prйlude"
PERFORMER "Bruno Cocset"
INDEX 00 01:38:11
FILE "13 Suite N° 6 (BWV 1012) en rй majeur -- I- Prйlude.wav" WAVE
INDEX 01 00:00:00
FILE "14 II. Allemande.wav" WAVE
TRACK 14 AUDIO
TITLE "II. Allemande"
PERFORMER "Bruno Cocset"
INDEX 01 00:00:00
FILE "15 III. Courante.wav" WAVE
TRACK 15 AUDIO
TITLE "III. Courante"
PERFORMER "Bruno Cocset"
INDEX 01 00:00:00
FILE "16 IV- Sarabande.wav" WAVE
TRACK 16 AUDIO
TITLE "IV- Sarabande"
PERFORMER "Bruno Cocset"
INDEX 01 00:00:00
FILE "17 V- Gavottes I & II.wav" WAVE
TRACK 17 AUDIO
TITLE "V- Gavottes I & II"
PERFORMER "Bruno Cocset"
INDEX 01 00:00:00
FILE "18 VI- Gigue.wav" WAVE
TRACK 18 AUDIO
TITLE "VI- Gigue"
PERFORMER "Bruno Cocset"
INDEX 01 00:00:00

Лог создания рипа - CD1

Exact Audio Copy V1.0 beta 3 from 29. August 2011
EAC extraction logfile from 18. April 2014, 18:03
Bruno Cocset / Suites a Violoncello Solo senza Basso - CD1
Used drive : Optiarc DVD+-RW AD-7230S Adapter: 0 ID: 2
Read mode : Secure
Utilize accurate stream : Yes
Defeat audio cache : Yes
Make use of C2 pointers : No
Read offset correction : 48
Overread into Lead-In and Lead-Out : No
Fill up missing offset samples with silence : Yes
Delete leading and trailing silent blocks : No
Null samples used in CRC calculations : Yes
Used interface : Native Win32 interface for Win NT & 2000
Gap handling : Appended to previous track
Used output format : User Defined Encoder
Selected bitrate : 1024 kBit/s
Quality : High
Add ID3 tag : No
Command line compressor : C:\Program Files (x86)\FLAC\flac.exe
Additional command line options : -8 -V -T "ARTIST=%artist%" -T "TITLE=%title%" -T "ALBUM=%albumtitle%" -T "DATE=%year%" -T "TRACKNUMBER=%tracknr%" -T "GENRE=%genre%" -T "PERFORMER=%albuminterpret%" -T "COMPOSER=%composer%" %haslyrics%--tag-from-file=LYRICS="%lyricsfile%"%haslyrics% -T "ALBUMARTIST=%albumartist%" -T "DISCNUMBER=%cdnumber%" -T "TOTALDISCS=%totalcds%" -T "TOTALTRACKS=%numtracks%" -T "COMMENT=%comment%" %source% -o %dest%
TOC of the extracted CD
Track | Start | Length | Start sector | End sector
---------------------------------------------------------
1 | 0:00.00 | 2:04.27 | 0 | 9326
2 | 2:04.27 | 4:17.71 | 9327 | 28672
3 | 6:22.23 | 2:23.68 | 28673 | 39465
4 | 8:46.16 | 2:55.48 | 39466 | 52638
5 | 11:41.64 | 2:45.03 | 52639 | 65016
6 | 14:26.67 | 1:37.37 | 65017 | 72328
7 | 16:04.29 | 3:38.41 | 72329 | 88719
8 | 19:42.70 | 3:29.74 | 88720 | 104468
9 | 23:12.69 | 1:55.38 | 104469 | 113131
10 | 25:08.32 | 4:50.14 | 113132 | 134895
11 | 29:58.46 | 2:42.41 | 134896 | 147086
12 | 32:41.12 | 2:35.63 | 147087 | 158774
13 | 35:17.00 | 2:50.09 | 158775 | 171533
14 | 38:07.09 | 3:23.61 | 171534 | 186819
15 | 41:30.70 | 2:55.22 | 186820 | 199966
16 | 44:26.17 | 5:11.52 | 199967 | 223343
17 | 49:37.69 | 3:11.43 | 223344 | 237711
18 | 52:49.37 | 2:49.20 | 237712 | 250406
Track 1
Filename E:\[AddWhatCD\Bach Cello Suites - Cocset f\d1\01 Suite N° 1 (BWV 1007) en sol majeur -- I- Prélude.wav
Pre-gap length 0:00:02.00
Peak level 59.8 %
Extraction speed 2.0 X
Track quality 100.0 %
Test CRC C6D237DF
Copy CRC C6D237DF
Accurately ripped (confidence 6) [E3DC4206] (AR v2)
Copy OK
Track 2
Filename E:\[AddWhatCD\Bach Cello Suites - Cocset f\d1\02 II- Allemande.wav
Peak level 66.1 %
Extraction speed 2.2 X
Track quality 99.9 %
Test CRC 68FD4077
Copy CRC 68FD4077
Accurately ripped (confidence 6) [FE88CD0A] (AR v2)
Copy OK
Track 3
Filename E:\[AddWhatCD\Bach Cello Suites - Cocset f\d1\03 III- Courante.wav
Peak level 68.1 %
Extraction speed 2.4 X
Track quality 100.0 %
Test CRC 5D62DACE
Copy CRC 5D62DACE
Accurately ripped (confidence 6) [661E676C] (AR v2)
Copy OK
Track 4
Filename E:\[AddWhatCD\Bach Cello Suites - Cocset f\d1\04 IV- Sarabande.wav
Peak level 51.7 %
Extraction speed 2.3 X
Track quality 99.9 %
Test CRC 73BC14A5
Copy CRC 73BC14A5
Accurately ripped (confidence 6) [522E8B7E] (AR v2)
Copy OK
Track 5
Filename E:\[AddWhatCD\Bach Cello Suites - Cocset f\d1\05 V- Menuets I & II.wav
Peak level 55.7 %
Extraction speed 2.8 X
Track quality 100.0 %
Test CRC BDB362CF
Copy CRC BDB362CF
Accurately ripped (confidence 6) [2D69E9A2] (AR v2)
Copy OK
Track 6
Filename E:\[AddWhatCD\Bach Cello Suites - Cocset f\d1\06 VI- Gigue.wav
Peak level 100.0 %
Extraction speed 2.5 X
Track quality 100.0 %
Test CRC 1C7131C1
Copy CRC 1C7131C1
Accurately ripped (confidence 6) [D90C7ED8] (AR v2)
Copy OK
Track 7
Filename E:\[AddWhatCD\Bach Cello Suites - Cocset f\d1\07 Suite N° 2 (BWV 1008) en ré mineur -- I- Prélude.wav
Pre-gap length 0:00:08.45
Peak level 85.1 %
Extraction speed 3.2 X
Track quality 100.0 %
Test CRC 1592DBB1
Copy CRC 1592DBB1
Accurately ripped (confidence 6) [9AD6AA5D] (AR v2)
Copy OK
Track 8
Filename E:\[AddWhatCD\Bach Cello Suites - Cocset f\d1\08 II- Allemande.wav
Peak level 74.4 %
Extraction speed 3.3 X
Track quality 100.0 %
Test CRC E29AE7DD
Copy CRC E29AE7DD
Accurately ripped (confidence 6) [DB265523] (AR v2)
Copy OK
Track 9
Filename E:\[AddWhatCD\Bach Cello Suites - Cocset f\d1\09 III- Courante.wav
Peak level 75.9 %
Extraction speed 2.4 X
Track quality 99.9 %
Test CRC 776BDFDE
Copy CRC 776BDFDE
Accurately ripped (confidence 6) [61B89DDF] (AR v2)
Copy OK
Track 10
Filename E:\[AddWhatCD\Bach Cello Suites - Cocset f\d1\10 IV- Sarabande.wav
Peak level 67.1 %
Extraction speed 3.3 X
Track quality 99.9 %
Test CRC 1828350C
Copy CRC 1828350C
Accurately ripped (confidence 6) [74B6E22E] (AR v2)
Copy OK
Track 11
Filename E:\[AddWhatCD\Bach Cello Suites - Cocset f\d1\11 V- Menuets I & II.wav
Peak level 100.0 %
Extraction speed 3.5 X
Track quality 100.0 %
Test CRC 67838AB6
Copy CRC 67838AB6
Accurately ripped (confidence 6) [758F305A] (AR v2)
Copy OK
Track 12
Filename E:\[AddWhatCD\Bach Cello Suites - Cocset f\d1\12 VI- Gigue.wav
Peak level 82.0 %
Extraction speed 3.6 X
Track quality 100.0 %
Test CRC 94032AE5
Copy CRC 94032AE5
Accurately ripped (confidence 6) [A76A72C7] (AR v2)
Copy OK
Track 13
Filename E:\[AddWhatCD\Bach Cello Suites - Cocset f\d1\13 Suite N° 3 (BWV 1009) en ut majeur -- I- Prélude.wav
Pre-gap length 0:00:08.97
Peak level 61.3 %
Extraction speed 3.8 X
Track quality 100.0 %
Test CRC DCC05931
Copy CRC DCC05931
Accurately ripped (confidence 6) [2EEF6474] (AR v2)
Copy OK
Track 14
Filename E:\[AddWhatCD\Bach Cello Suites - Cocset f\d1\14 II- Allemande.wav
Peak level 68.9 %
Extraction speed 3.5 X
Track quality 99.9 %
Test CRC 85813FCD
Copy CRC 85813FCD
Accurately ripped (confidence 6) [6754DE45] (AR v2)
Copy OK
Track 15
Filename E:\[AddWhatCD\Bach Cello Suites - Cocset f\d1\15 III- Courante.wav
Peak level 56.9 %
Extraction speed 3.4 X
Track quality 99.9 %
Test CRC 86FF0746
Copy CRC 86FF0746
Accurately ripped (confidence 6) [EC005D79] (AR v2)
Copy OK
Track 16
Filename E:\[AddWhatCD\Bach Cello Suites - Cocset f\d1\16 IV- Sarabande.wav
Peak level 40.7 %
Extraction speed 4.4 X
Track quality 100.0 %
Test CRC 2AF0603B
Copy CRC 2AF0603B
Accurately ripped (confidence 6) [CA50D3DE] (AR v2)
Copy OK
Track 17
Filename E:\[AddWhatCD\Bach Cello Suites - Cocset f\d1\17 V- Bourrées I & II.wav
Peak level 52.5 %
Extraction speed 3.7 X
Track quality 99.9 %
Test CRC 125DC629
Copy CRC 125DC629
Accurately ripped (confidence 6) [F51A9DF6] (AR v2)
Copy OK
Track 18
Filename E:\[AddWhatCD\Bach Cello Suites - Cocset f\d1\18 VI- Gigue.wav
Peak level 74.8 %
Extraction speed 4.3 X
Track quality 100.0 %
Test CRC 1FE28842
Copy CRC 1FE28842
Accurately ripped (confidence 6) [45BA1D52] (AR v2)
Copy OK
All tracks accurately ripped
No errors occurred
End of status report
---- CUETools DB Plugin V2.1.3
[CTDB TOCID: TXT4VqzfYNaVmfvw6x9ws4xY0u8-] found, Submit result: TXT4VqzfYNaVmfvw6x9ws4xY0u8- has been confirmed
[2f639af3] (11/11) Accurately ripped
==== Log checksum 70B73D0F6A344DFF8CEC69CB6998407B9293CCAD5BE03665F41B8F98DA542969 ====

Лог создания рипа - CD2

Exact Audio Copy V1.0 beta 3 from 29. August 2011
EAC extraction logfile from 18. April 2014, 18:45
Bruno Cocset / Suites a Violoncello Solo senza Basso - CD2
Used drive : Optiarc DVD+-RW AD-7230S Adapter: 0 ID: 2
Read mode : Secure
Utilize accurate stream : Yes
Defeat audio cache : Yes
Make use of C2 pointers : No
Read offset correction : 48
Overread into Lead-In and Lead-Out : No
Fill up missing offset samples with silence : Yes
Delete leading and trailing silent blocks : No
Null samples used in CRC calculations : Yes
Used interface : Native Win32 interface for Win NT & 2000
Gap handling : Appended to previous track
Used output format : User Defined Encoder
Selected bitrate : 1024 kBit/s
Quality : High
Add ID3 tag : No
Command line compressor : C:\Program Files (x86)\FLAC\flac.exe
Additional command line options : -8 -V -T "ARTIST=%artist%" -T "TITLE=%title%" -T "ALBUM=%albumtitle%" -T "DATE=%year%" -T "TRACKNUMBER=%tracknr%" -T "GENRE=%genre%" -T "PERFORMER=%albuminterpret%" -T "COMPOSER=%composer%" %haslyrics%--tag-from-file=LYRICS="%lyricsfile%"%haslyrics% -T "ALBUMARTIST=%albumartist%" -T "DISCNUMBER=%cdnumber%" -T "TOTALDISCS=%totalcds%" -T "TOTALTRACKS=%numtracks%" -T "COMMENT=%comment%" %source% -o %dest%
TOC of the extracted CD
Track | Start | Length | Start sector | End sector
---------------------------------------------------------
1 | 0:00.00 | 3:41.23 | 0 | 16597
2 | 3:41.23 | 4:36.55 | 16598 | 37352
3 | 8:18.03 | 3:13.37 | 37353 | 51864
4 | 11:31.40 | 4:33.03 | 51865 | 72342
5 | 16:04.43 | 4:17.40 | 72343 | 91657
6 | 20:22.08 | 2:58.42 | 91658 | 105049
7 | 23:20.50 | 5:31.67 | 105050 | 129941
8 | 28:52.42 | 5:28.38 | 129942 | 154579
9 | 34:21.05 | 1:54.49 | 154580 | 163178
10 | 36:15.54 | 3:54.38 | 163179 | 180766
11 | 40:10.17 | 4:13.57 | 180767 | 199798
12 | 44:23.74 | 1:47.21 | 199799 | 207844
13 | 46:11.20 | 3:54.25 | 207845 | 225419
14 | 50:05.45 | 7:18.67 | 225420 | 258336
15 | 57:24.37 | 3:25.35 | 258337 | 273746
16 | 60:49.72 | 5:07.59 | 273747 | 296830
17 | 65:57.56 | 3:43.25 | 296831 | 313580
18 | 69:41.06 | 3:43.50 | 313581 | 330355
Track 1
Filename E:\[AddWhatCD\Bach Cello Suites - Cocset f\d2\01 Suite N° 4 (BWV 1010) en mi bémol majeur -- I- Prélude.wav
Pre-gap length 0:00:02.00
Peak level 55.4 %
Extraction speed 2.5 X
Track quality 100.0 %
Test CRC 383B6469
Copy CRC 383B6469
Accurately ripped (confidence 9) [A1D67326] (AR v2)
Copy OK
Track 2
Filename E:\[AddWhatCD\Bach Cello Suites - Cocset f\d2\02 II- Allemande.wav
Peak level 66.4 %
Extraction speed 2.9 X
Track quality 100.0 %
Test CRC 3FE915C8
Copy CRC 3FE915C8
Accurately ripped (confidence 9) [6A006EC6] (AR v2)
Copy OK
Track 3
Filename E:\[AddWhatCD\Bach Cello Suites - Cocset f\d2\03 III- Courante.wav
Peak level 86.2 %
Extraction speed 2.9 X
Track quality 100.0 %
Test CRC 75BBAF75
Copy CRC 75BBAF75
Accurately ripped (confidence 9) [DE5E22A4] (AR v2)
Copy OK
Track 4
Filename E:\[AddWhatCD\Bach Cello Suites - Cocset f\d2\04 IV- Sarabande.wav
Peak level 52.7 %
Extraction speed 3.3 X
Track quality 100.0 %
Test CRC CEC6E38D
Copy CRC CEC6E38D
Accurately ripped (confidence 9) [AB104E1B] (AR v2)
Copy OK
Track 5
Filename E:\[AddWhatCD\Bach Cello Suites - Cocset f\d2\05 V- Bourrées I & II.wav
Peak level 81.7 %
Extraction speed 3.5 X
Track quality 100.0 %
Test CRC 39B7D525
Copy CRC 39B7D525
Accurately ripped (confidence 9) [5DFC71D6] (AR v2)
Copy OK
Track 6
Filename E:\[AddWhatCD\Bach Cello Suites - Cocset f\d2\06 VI- Gigue.wav
Peak level 73.6 %
Extraction speed 3.4 X
Track quality 100.0 %
Test CRC 284D10D4
Copy CRC 284D10D4
Accurately ripped (confidence 9) [15AF5C88] (AR v2)
Copy OK
Track 7
Filename E:\[AddWhatCD\Bach Cello Suites - Cocset f\d2\07 Suite N° 5 (BWV 1011) en ut mineur -- I- Prélude.wav
Pre-gap length 0:00:08.98
Peak level 74.1 %
Extraction speed 3.9 X
Track quality 100.0 %
Test CRC EA86827F
Copy CRC EA86827F
Accurately ripped (confidence 9) [740A318B] (AR v2)
Copy OK
Track 8
Filename E:\[AddWhatCD\Bach Cello Suites - Cocset f\d2\08 II- Allemande.wav
Peak level 86.3 %
Extraction speed 4.2 X
Track quality 100.0 %
Test CRC 434E84C0
Copy CRC 434E84C0
Accurately ripped (confidence 9) [F7D84A50] (AR v2)
Copy OK
Track 9
Filename E:\[AddWhatCD\Bach Cello Suites - Cocset f\d2\09 III- Courante.wav
Peak level 68.3 %
Extraction speed 3.6 X
Track quality 100.0 %
Test CRC 3C9A9399
Copy CRC 3C9A9399
Accurately ripped (confidence 9) [A32D9745] (AR v2)
Copy OK
Track 10
Filename E:\[AddWhatCD\Bach Cello Suites - Cocset f\d2\10 IV- Sarabande.wav
Peak level 34.0 %
Extraction speed 4.3 X
Track quality 100.0 %
Test CRC 70DACFC1
Copy CRC 70DACFC1
Accurately ripped (confidence 9) [87E0EFFC] (AR v2)
Copy OK
Track 11
Filename E:\[AddWhatCD\Bach Cello Suites - Cocset f\d2\11 V- Gavottes I & II.wav
Peak level 78.7 %
Extraction speed 4.5 X
Track quality 100.0 %
Test CRC 1DB02A86
Copy CRC 1DB02A86
Accurately ripped (confidence 9) [842265C4] (AR v2)
Copy OK
Track 12
Filename E:\[AddWhatCD\Bach Cello Suites - Cocset f\d2\12 VI- Gigue.wav
Peak level 58.1 %
Extraction speed 3.8 X
Track quality 100.0 %
Test CRC FA47BD6E
Copy CRC FA47BD6E
Accurately ripped (confidence 8) [5CEFA934] (AR v2)
Copy OK
Track 13
Filename E:\[AddWhatCD\Bach Cello Suites - Cocset f\d2\13 Suite N° 6 (BWV 1012) en ré majeur -- I- Prélude.wav
Pre-gap length 0:00:09.13
Peak level 78.1 %
Extraction speed 4.6 X
Track quality 100.0 %
Test CRC 36AAF7F9
Copy CRC 36AAF7F9
Accurately ripped (confidence 9) [A386B471] (AR v2)
Copy OK
Track 14
Filename E:\[AddWhatCD\Bach Cello Suites - Cocset f\d2\14 II. Allemande.wav
Peak level 55.3 %
Extraction speed 4.8 X
Track quality 99.9 %
Test CRC 116B5019
Copy CRC 116B5019
Accurately ripped (confidence 9) [4DCE7579] (AR v2)
Copy OK
Track 15
Filename E:\[AddWhatCD\Bach Cello Suites - Cocset f\d2\15 III. Courante.wav
Peak level 47.0 %
Extraction speed 4.8 X
Track quality 100.0 %
Test CRC BEE3ECAB
Copy CRC BEE3ECAB
Accurately ripped (confidence 9) [E5455912] (AR v2)
Copy OK
Track 16
Filename E:\[AddWhatCD\Bach Cello Suites - Cocset f\d2\16 IV- Sarabande.wav
Peak level 48.8 %
Extraction speed 5.3 X
Track quality 100.0 %
Test CRC 8D96AE6D
Copy CRC 8D96AE6D
Accurately ripped (confidence 9) [6E7BE0E6] (AR v2)
Copy OK
Track 17
Filename E:\[AddWhatCD\Bach Cello Suites - Cocset f\d2\17 V- Gavottes I & II.wav
Peak level 61.5 %
Extraction speed 5.2 X
Track quality 100.0 %
Test CRC C3D8FEFC
Copy CRC C3D8FEFC
Accurately ripped (confidence 9) [9CBD3A97] (AR v2)
Copy OK
Track 18
Filename E:\[AddWhatCD\Bach Cello Suites - Cocset f\d2\18 VI- Gigue.wav
Peak level 56.0 %
Extraction speed 5.3 X
Track quality 100.0 %
Test CRC 917A0593
Copy CRC 917A0593
Accurately ripped (confidence 8) [E4613992] (AR v2)
Copy OK
All tracks accurately ripped
No errors occurred
End of status report
---- CUETools DB Plugin V2.1.3
[CTDB TOCID: mtkY.FDYzGMkuDpDIbid5dc94kg-] found, Submit result: mtkY.FDYzGMkuDpDIbid5dc94kg- has been confirmed
[2b3562f5] (10/10) Accurately ripped
==== Log checksum 0298FABA662CBD582C54D2C5CF88DD0D0730BFD7653F739DB0BF2AC98F6B55A6 ====

Лог проверки качества

fooCDtect - foobar2000 + auCDtect, baralgin.
auCDtect: CD records authenticity detector, version 0.8.2
Copyright (c) 2004 Oleg Berngardt. All rights reserved.
Copyright (c) 2004 Alexander Djourik. All rights reserved.
mode: 0
===========================================
Track: 03. III- Courante
Quality: CDDA 43%
===========================================
Track: 04. IV- Sarabande
Quality: MPEG 90%
===========================================
Track: 02. II- Allemande
Quality: CDDA 49%
===========================================
Track: 01. Suite N° 1 (BWV 1007) en sol majeur -- I- Prélude
Quality: CDDA 49%
===========================================
Track: 05. V- Menuets I & II
Quality: CDDA 43%
===========================================
Track: 07. Suite N° 2 (BWV 1008) en ré mineur -- I- Prélude
Quality: MPEG 90%
===========================================
Track: 08. II- Allemande
Quality: CDDA 49%
===========================================
Track: 10. IV- Sarabande
Quality: MPEG 89%
===========================================
Track: 09. III- Courante
Quality: CDDA 86%
===========================================
Track: 06. VI- Gigue
Quality: CDDA 85%
===========================================
Track: 11. V- Menuets I & II
Quality: CDDA 49%
===========================================
Track: 13. Suite N° 3 (BWV 1009) en ut majeur -- I- Prélude
Quality: CDDA 87%
===========================================
Track: 12. VI- Gigue
Quality: CDDA 100%
===========================================
Track: 14. II- Allemande
Quality: CDDA 62%
===========================================
Track: 16. IV- Sarabande
Quality: MPEG 93%
===========================================
Track: 15. III- Courante
Quality: CDDA 62%
===========================================
Track: 17. V- Bourrées I & II
Quality: CDDA 76%
===========================================
Track: 18. VI- Gigue
Quality: CDDA 85%
===========================================
Track: 01. Suite N° 4 (BWV 1010) en mi bémol majeur -- I- Prélude
Quality: MPEG 80%
===========================================
Track: 05. V- Bourrées I & II
Quality: CDDA 43%
===========================================
Track: 06. VI- Gigue
Quality: CDDA 43%
===========================================
Track: 03. III- Courante
Quality: CDDA 43%
===========================================
Track: 07. Suite N° 5 (BWV 1011) en ut mineur -- I- Prélude
Quality: MPEG 89%
===========================================
Track: 04. IV- Sarabande
Quality: MPEG 100%
===========================================
Track: 02. II- Allemande
Quality: MPEG 100%
===========================================
Track: 09. III- Courante
Quality: CDDA 86%
===========================================
Track: 11. V- Gavottes I & II
Quality: CDDA 86%
===========================================
Track: 12. VI- Gigue
Quality: CDDA 94%
===========================================
Track: 08. II- Allemande
Quality: MPEG 93%
===========================================
Track: 13. Suite N° 6 (BWV 1012) en ré majeur -- I- Prélude
Quality: MPEG 89%
===========================================
Track: 15. III. Courante
Quality: MPEG 93%
===========================================
Track: 14. II. Allemande
Quality: MPEG 97%
===========================================
Track: 10. IV- Sarabande
Quality: MPEG 100%
===========================================
Track: 18. VI- Gigue
Quality: CDDA 99%
===========================================
Track: 16. IV- Sarabande
Quality: MPEG 90%
===========================================
Track: 17. V- Gavottes I & II
Quality: CDDA 100%
===========================================

Скриншот спектра частот

Track 04



Показать сообщения:    

Текущее время: 05-Дек 05:28

Часовой пояс: UTC + 3


Вы не можете начинать темы
Вы не можете отвечать на сообщения
Вы не можете редактировать свои сообщения
Вы не можете удалять свои сообщения
Вы не можете голосовать в опросах
Вы не можете прикреплять файлы к сообщениям
Вы не можете скачивать файлы