(Classical/Chamber) Girolamo Frescobaldi: Canzoni (Les Basses Réunies, Bruno Cocset) [Alpha] - 2004, FLAC (tracks+.cue) lossless


 

[Цитировать]

Les Basses Réunies • Bruno Cocset
Girolamo Frescobaldi: Canzoni-Дата записи: 09.2003 • Год издания: 2004 • Длительность: 01:04:49
Жанр: Classical/Chamber/Baroque • Лейбл: Alpha • : ALPHA 053
Кодек: FLAC • Битрейт: lossless • Тип рипа: tracks+.cue
Источник: what.cd • Сканы: да
-01. Vigesimaquarta a Due Bassi e Canto "detta la Nobile"(Grass 1628 & Venise 1635) (Prima a 3)
02. Ottava a Basso Solo detta l'ambitiosa (Grassi 1628)
03. Prima a 4, Canto Alto Tenor Basse "Sopra Rugier" (Venise 1635)
04. Seconda a Canto Solo "detta la Bernardinia" (Grassi 1628)
05. Undecima a Due Canti "detta la Plettenberger" (Grassi 1628)
06. Prima a 2 Bassi (Venise 1635)
07. Trigesima Quinta "detta l'Alessandrina" (Grassi 1628)
08. Seconda a 2, Canto e Basso (Venise 1635)
09. Terza a 2, Canto e Basso (Venise 1635)
10. Prima a Basso Solo (Venise 1635 & Grassi 1628) (Sesta "detta Laltera")
11. Quinta a 4, Canto Alto Tenor Basse (Venise 1635)
12. Decimasettima a Due Bassi "detta la Diodata" (Grassi 1628)
13. Quarta a 4, Due Canti e Due Bassi (Venise 1635)
14. Prima a 2, Canto e Basso (Venise 1635)
15. Quintadecima a 2 Bassi "detta la Lieuoratta" (Grassi 1628)
16. Settima a Basso Solo detta la Superba (Grassi 1628)
17. Decimasesta a 2 Bassi "detta la Samminiata" (Grassi 1628)
18. Seconda a 4, Due Canti e Due Bassi (Venise 1635)
19. Quinta a 3, Due Canti e Basso (Venise 1635)
20. Terza a Canto Solo "detta la Donatina" (Grassi 1628)
21. Seconda a 4, Canto Alto Tenor Basse "Sopra Romanesca" (Venise 1635)
-Bruno Cocset, cello | Les Basses Réunies-Об исполнителе:
Bruno Cocset (род. 1963, Франция) на сегодня один из самых влиятельных барочных виолончелистов. Окончив консерваторию продолжал обучению у Аннер Билсма, Япа Шрёдера и Кристофа Койна. Работал с самыми известными аутентичными ансамблями Европы, записываясь в основном с Le Concert des Nations Жорди Саваля до того, как создал свой собственный барочный ансамбль Les Basses Réunies. Бруно славится "спасением" забытых композиторов таких как Жан-Батиста Баре или Эваристо Феличе Даль Абако, и двумя новаторскими записями обширных сборников, включая сюиты для виолончели И.С. Баха и виолончельные концерты и сонаты Вивальди.

Содержание индексной карты

REM ACCURATERIPID 00306fb7-02ec0b81-2b0f3115
REM GENRE "Classical"
REM DATE 2003
REM DISCID 2B0F3115
REM COMMENT "ExactAudioCopy v0.99pb5"
PERFORMER "Frescobaldi"
TITLE "Canzoni"
FILE "01 - Vigesimaquarta a Due Bassi e Canto detta la Nobile.flac" WAVE
TRACK 01 AUDIO
TITLE "Vigesimaquarta a Due Bassi e Canto detta la Nobile"
PERFORMER "Frescobaldi"
PREGAP 00:00:10
INDEX 01 00:00:00
FILE "02 - Ottava a Basso Solo detta l'ambitiosa.flac" WAVE
TRACK 02 AUDIO
TITLE "Ottava a Basso Solo detta l'ambitiosa"
PERFORMER "Frescobaldi"
INDEX 01 00:00:00
FILE "03 - Prima a 4, Canto Alto Tenor Basse Sopra Rugier.flac" WAVE
TRACK 03 AUDIO
TITLE "Prima a 4, Canto Alto Tenor Basse Sopra Rugier"
PERFORMER "Frescobaldi"
INDEX 01 00:00:00
TRACK 04 AUDIO
TITLE "Seconda a Canto Solo detta la Bernardinia"
PERFORMER "Frescobaldi"
INDEX 00 02:15:15
FILE "04 - Seconda a Canto Solo detta la Bernardinia.flac" WAVE
INDEX 01 00:00:00
FILE "05 - Undecima a Due Canti detta la Plettenberger.flac" WAVE
TRACK 05 AUDIO
TITLE "Undecima a Due Canti detta la Plettenberger"
PERFORMER "Frescobaldi"
INDEX 01 00:00:00
TRACK 06 AUDIO
TITLE "Prima a 2 Bassi"
PERFORMER "Frescobaldi"
INDEX 00 02:13:20
FILE "06 - Prima a 2 Bassi.flac" WAVE
INDEX 01 00:00:00
TRACK 07 AUDIO
TITLE "Trigesima Quinta detta l'Alessandrina"
PERFORMER "Frescobaldi"
INDEX 00 03:11:05
FILE "07 - Trigesima Quinta detta l'Alessandrina.flac" WAVE
INDEX 01 00:00:00
FILE "08 - Seconda a 2, Canto e Basso.flac" WAVE
TRACK 08 AUDIO
TITLE "Seconda a 2, Canto e Basso"
PERFORMER "Frescobaldi"
INDEX 01 00:00:00
TRACK 09 AUDIO
TITLE "Terza a 2, Canto e Basso"
PERFORMER "Frescobaldi"
INDEX 00 03:34:03
FILE "09 - Terza a 2, Canto e Basso.flac" WAVE
INDEX 01 00:00:00
TRACK 10 AUDIO
TITLE "Prima a Basso Solo (Sesta detta Laltera)"
PERFORMER "Frescobaldi"
INDEX 00 02:39:23
FILE "10 - Prima a Basso Solo (Sesta detta Laltera).flac" WAVE
INDEX 01 00:00:00
TRACK 11 AUDIO
TITLE "Quinta a 4, Canto Alto Tenor Basse"
PERFORMER "Frescobaldi"
INDEX 00 03:27:09
FILE "11 - Quinta a 4, Canto Alto Tenor Basse.flac" WAVE
INDEX 01 00:00:00
TRACK 12 AUDIO
TITLE "Decimasettima a Due Bassi detta la Diodata"
PERFORMER "Frescobaldi"
INDEX 00 03:30:30
FILE "12 - Decimasettima a Due Bassi detta la Diodata.flac" WAVE
INDEX 01 00:00:00
FILE "13 - Quarta a 4, Due Canti e Due Bassi.flac" WAVE
TRACK 13 AUDIO
TITLE "Quarta a 4, Due Canti e Due Bassi"
PERFORMER "Frescobaldi"
INDEX 01 00:00:00
TRACK 14 AUDIO
TITLE "Prima a 2, Canto e Basso"
PERFORMER "Frescobaldi"
INDEX 00 03:02:72
FILE "14 - Prima a 2, Canto e Basso.flac" WAVE
INDEX 01 00:00:00
TRACK 15 AUDIO
TITLE "Quintadecima a 2 Bassi detta la Lieuoratta"
PERFORMER "Frescobaldi"
INDEX 00 02:28:69
FILE "15 - Quintadecima a 2 Bassi detta la Lieuoratta.flac" WAVE
INDEX 01 00:00:00
TRACK 16 AUDIO
TITLE "Settima a Basso Solo detta la Superba"
PERFORMER "Frescobaldi"
INDEX 00 03:21:00
FILE "16 - Settima a Basso Solo detta la Superba.flac" WAVE
INDEX 01 00:00:00
FILE "17 - Decimasesta a 2 Bassi detta la Samminiata.flac" WAVE
TRACK 17 AUDIO
TITLE "Decimasesta a 2 Bassi detta la Samminiata"
PERFORMER "Frescobaldi"
INDEX 01 00:00:00
FILE "18 - Seconda a 4, Due Canti e Due Bassi.flac" WAVE
TRACK 18 AUDIO
TITLE "Seconda a 4, Due Canti e Due Bassi"
PERFORMER "Frescobaldi"
INDEX 01 00:00:00
TRACK 19 AUDIO
TITLE "Quinta a 3, Due Canti e Basso"
PERFORMER "Frescobaldi"
INDEX 00 04:36:45
FILE "19 - Quinta a 3, Due Canti e Basso.flac" WAVE
INDEX 01 00:00:00
TRACK 20 AUDIO
TITLE "Terza a Canto Solo detta la Donatina"
PERFORMER "Frescobaldi"
INDEX 00 03:00:71
FILE "20 - Terza a Canto Solo detta la Donatina.flac" WAVE
INDEX 01 00:00:00
TRACK 21 AUDIO
TITLE "Seconda a 4, Canto Alto Tenor Basse Sopra Romanesca"
PERFORMER "Frescobaldi"
INDEX 00 02:18:64
FILE "21 - Seconda a 4, Canto Alto Tenor Basse Sopra Romanesca.flac" WAVE
INDEX 01 00:00:00

Лог создания рипа

Exact Audio Copy V0.99 prebeta 5 from 4. May 2009
EAC extraction logfile from 16. July 2009, 23:46
Frescobaldi / Canzoni
Used drive : TSSTcorpCDDVDW TS-L632N Adapter: 0 ID: 0
Read mode : Secure
Utilize accurate stream : Yes
Defeat audio cache : No
Make use of C2 pointers : No
Read offset correction : 6
Overread into Lead-In and Lead-Out : No
Fill up missing offset samples with silence : Yes
Delete leading and trailing silent blocks : No
Null samples used in CRC calculations : No
Used interface : Native Win32 interface for Win NT & 2000
Used output format : Internal WAV Routines
Sample format : 44.100 Hz; 16 Bit; Stereo
TOC of the extracted CD
Track | Start | Length | Start sector | End sector
---------------------------------------------------------
1 | 0:00.10 | 3:14.71 | 10 | 14630
2 | 3:15.06 | 3:05.57 | 14631 | 28562
3 | 6:20.63 | 2:16.63 | 28563 | 38825
4 | 8:37.51 | 2:40.35 | 38826 | 50860
5 | 11:18.11 | 2:14.60 | 50861 | 60970
6 | 13:32.71 | 3:13.08 | 60971 | 75453
7 | 16:46.04 | 3:28.25 | 75454 | 91078
8 | 20:14.29 | 3:36.39 | 91079 | 107317
9 | 23:50.68 | 2:41.08 | 107318 | 119400
10 | 26:32.01 | 3:28.73 | 119401 | 135073
11 | 30:00.74 | 3:33.31 | 135074 | 151079
12 | 33:34.30 | 3:52.69 | 151080 | 168548
13 | 37:27.24 | 3:05.46 | 168549 | 182469
14 | 40:32.70 | 2:30.10 | 182470 | 193729
15 | 43:03.05 | 3:22.27 | 193730 | 208906
16 | 46:25.32 | 2:51.24 | 208907 | 221755
17 | 49:16.56 | 2:34.11 | 221756 | 233316
18 | 51:50.67 | 4:38.27 | 233317 | 254193
19 | 56:29.19 | 3:03.36 | 254194 | 267954
20 | 59:32.55 | 2:20.29 | 267955 | 278483
21 | 61:53.09 | 2:56.13 | 278484 | 291696
Range status and errors
Selected range
Filename D:\rapidshare\Frescobaldi - Canzoni\Frescobaldi - Canzoni.wav
Peak level 100.0 %
Range quality 100.0 %
Copy CRC E4DBB1AB
Copy OK
No errors occurred
AccurateRip summary
Track 1 not present in database
Track 2 not present in database
Track 3 not present in database
Track 4 not present in database
Track 5 not present in database
Track 6 not present in database
Track 7 not present in database
Track 8 not present in database
Track 9 not present in database
Track 10 not present in database
Track 11 not present in database
Track 12 not present in database
Track 13 not present in database
Track 14 not present in database
Track 15 not present in database
Track 16 not present in database
Track 17 not present in database
Track 18 not present in database
Track 19 not present in database
Track 20 not present in database
Track 21 not present in database
None of the tracks are present in the AccurateRip database
End of status report

Лог проверки качества

fooCDtect - foobar2000 + auCDtect, baralgin.
auCDtect: CD records authenticity detector, version 0.8.2
Copyright (c) 2004 Oleg Berngardt. All rights reserved.
Copyright (c) 2004 Alexander Djourik. All rights reserved.
mode: 0
===========================================
Track: 4-21. Seconda a Canto Solo ''detta la Bernardinia'' (Grassi 1628)
Quality: CDDA 100%
===========================================
Track: 1-21. Vigesimaquarta a Due Bassi e Canto ''detta la Nobile''(Grass 1628 & Venise 1635) (Prima a 3)
Quality: CDDA 100%
===========================================
Track: 3-21. Prima a 4, Canto Alto Tenor Basse ''Sopra Rugier'' (Venise 1635)
Quality: CDDA 100%
===========================================
Track: 5-21. Undecima a Due Canti ''detta la Plettenberger'' (Grassi 1628)
Quality: CDDA 99%
===========================================
Track: 2-21. Ottava a Basso Solo detta l'ambitiosa (Grassi 1628)
Quality: CDDA 100%
===========================================
Track: 7-21. Trigesima Quinta ''detta l'Alessandrina'' (Grassi 1628)
Quality: CDDA 86%
===========================================
Track: 9-21. Terza a 2, Canto e Basso (Venise 1635)
Quality: CDDA 100%
===========================================
Track: 6-21. Prima a 2 Bassi (Venise 1635)
Quality: CDDA 100%
===========================================
Track: 8-21. Seconda a 2, Canto e Basso (Venise 1635)
Quality: CDDA 100%
===========================================
Track: 11-21. Quinta a 4, Canto Alto Tenor Basse (Venise 1635)
Quality: CDDA 100%
===========================================
Track: 10-21. Prima a Basso Solo (Venise 1635 & Grassi 1628) (Sesta ''detta Laltera'')
Quality: CDDA 100%
===========================================
Track: 13-21. Quarta a 4, Due Canti e Due Bassi (Venise 1635)
Quality: CDDA 100%
===========================================
Track: 12-21. Decimasettima a Due Bassi ''detta la Diodata'' (Grassi 1628)
Quality: CDDA 100%
===========================================
Track: 16-21. Settima a Basso Solo detta la Superba (Grassi 1628)
Quality: CDDA 100%
===========================================
Track: 17-21. Decimasesta a 2 Bassi ''detta la Samminiata'' (Grassi 1628)
Quality: CDDA 100%
===========================================
Track: 18-21. Seconda a 4, Due Canti e Due Bassi (Venise 1635)
Quality: CDDA 100%
===========================================
Track: 14-21. Prima a 2, Canto e Basso (Venise 1635)
Quality: CDDA 100%
===========================================
Track: 15-21. Quintadecima a 2 Bassi ''detta la Lieuoratta'' (Grassi 1628)
Quality: CDDA 100%
===========================================
Track: 20-21. Terza a Canto Solo ''detta la Donatina'' (Grassi 1628)
Quality: CDDA 100%
===========================================
Track: 21-21. Seconda a 4, Canto Alto Tenor Basse ''Sopra Romanesca'' (Venise 1635)
Quality: CDDA 100%
===========================================
Track: 19-21. Quinta a 3, Due Canti e Basso (Venise 1635)
Quality: CDDA 100%
===========================================

Скриншот спектра частот

Track 07



Показать сообщения:    

Текущее время: 02-Дек 23:10

Часовой пояс: UTC + 3


Вы не можете начинать темы
Вы не можете отвечать на сообщения
Вы не можете редактировать свои сообщения
Вы не можете удалять свои сообщения
Вы не можете голосовать в опросах
Вы не можете прикреплять файлы к сообщениям
Вы не можете скачивать файлы