(Score) Баскетбольные мечты / Hoop Dreams (Hoop Dreams (Original Motion Picture Soundtrack)) (Ben Sidran) - 1994, FLAC (image+.cue), lossless


Статистика раздачи [Обновить пиров]
Размер:  329 MB   |    Зарегистрирован:  10 месяцев 29 дней   |    Скачан:  0 раз

Полного источника не было: Никогда

 
   
 
 
 

[Цитировать]

Баскетбольные мечты / Hoop Dreams
Название альбома: Hoop Dreams (Original Motion Picture Soundtrack)
Жанр: Score
Композитор: Ben Sidran
Год выпуска диска: 1994
Страна-производитель диска: Germany
Издатель (лейбл): GRP/MCA/BMG
Номер по каталогу: GRM 40292
Аудиокодек: FLAC (*.flac)
Тип рипа: image+.cue
Битрейт аудио: lossless
Продолжительность: 00:53:09
Источник: собственный рип
Наличие сканов в содержимом раздачи: нет
Треклист:
1 Hoop Dreams (feat. Tone a.k.a. Deacon a.k.a Tony M. of Prince & The New Power Generation)
2 Traveling Music
3 The Original Lesson (feat. Humpty Hump, Shock G 0f Digital Underground)
4 The Float
5 The Tide (Keeps Lifting Me)(feat. Mavis Staples, Pops Staples of Staples Singers,& The Steeles)
6 Above The Rim
7 Low Post
8 Fast Break (feat. Tone a.k.a. Deacon a.k.a Tony M. of Prince & The New Power Generation)
9 Under The Knife
10 Junior Moved
11 Walking The Walk
12 Face
13 Sweet Dreams

Лог создания рипа

Exact Audio Copy V1.1 from 23. June 2015
EAC extraction logfile from 26. December 2015, 1:24
V/A / Hoop Dreams
Used drive : TSSTcorpCDDVDW TS-L633C Adapter: 1 ID: 0
Read mode : SecureUtilize accurate stream : YesDefeat audio cache : YesMake use of C2 pointers : No
Read offset correction : 6Overread into Lead-In and Lead-Out : NoFill up missing offset samples with silence : YesDelete leading and trailing silent blocks : NoNull samples used in CRC calculations : YesUsed interface : Native Win32 interface for Win NT & 2000
Used output format : User Defined EncoderSelected bitrate : 768 kBit/sQuality : HighAdd ID3 tag : NoCommand line compressor : C:\Program Files (x86)\Exact Audio Copy\Flac\flac.exeAdditional command line options : -V -8 -T "Date=%year%" -T "Genre=%genre%" %source%
TOC of the extracted CD
Track | Start | Length | Start sector | End sector --------------------------------------------------------- 1 | 0:00.32 | 4:37.33 | 32 | 20839 2 | 4:37.65 | 4:19.12 | 20840 | 40276 3 | 8:57.02 | 4:33.08 | 40277 | 60759 4 | 13:30.10 | 2:08.27 | 60760 | 70386 5 | 15:38.37 | 4:07.48 | 70387 | 88959 6 | 19:46.10 | 4:28.30 | 88960 | 109089 7 | 24:14.40 | 6:13.22 | 109090 | 137086 8 | 30:27.62 | 3:34.48 | 137087 | 153184 9 | 34:02.35 | 4:28.70 | 153185 | 173354 10 | 38:31.30 | 2:27.15 | 173355 | 184394 11 | 40:58.45 | 4:06.22 | 184395 | 202866 12 | 45:04.67 | 4:20.13 | 202867 | 222379 13 | 49:25.05 | 3:44.52 | 222380 | 239231
Range status and errors
Selected range
Filename C:\Users\Music\12.RIPS\V,A - Hoop Dreams (Original Motion Picture Soundtrack).wav
Peak level 100.0 % Extraction speed 4.2 X Range quality 100.0 % Test CRC A59F99C5 Copy CRC A59F99C5 Copy OK
No errors occurred
AccurateRip summary
Track 1 not present in databaseTrack 2 not present in databaseTrack 3 not present in databaseTrack 4 not present in databaseTrack 5 not present in databaseTrack 6 not present in databaseTrack 7 not present in databaseTrack 8 not present in databaseTrack 9 not present in databaseTrack 10 not present in databaseTrack 11 not present in databaseTrack 12 not present in databaseTrack 13 not present in database
None of the tracks are present in the AccurateRip database
End of status report
---- CUETools DB Plugin V2.1.6
[CTDB TOCID: pKFPr1wxWqx4C__e_LdbTlcmpKw-] database access error: The remote name could not be resolved: 'db.cuetools.net'
==== Log checksum 2533353343120AB0D429CDC66767863EA20DBB8F0744CE73A4A73A50AD91F107 ====

Об альбоме (сборнике)

По стилистике альбом очень разнообразен,содержит в себе множество стилей от джаза,блюза и госпела до хип-хопа,нью джек свинга и хауса.В записи и написании музыки учавствовали многие музыканты из "лагеря" Принса:Tony M.,Ricky & Paul Peterson,Eric Leeds,The Steeles,Mavis Staples....
[teatrix.ru].t12585.torrent 
Торрент: Зарегистрирован [ 2016-01-05 01:40 ] · 40552BCCD014062C41E42D6027BD6E447DED0CAF

Скачать .torrent

Скачать

14 KB

Статус: проверено
Скачан: 0 раз
Размер: 329 MB
terms.php



Быстрый ответ

Имя:

      
Для отправки сообщений необходимо включить JavaScript
Показать сообщения:    

Текущее время: 03-Дек 07:40

Часовой пояс: UTC + 3


Вы можете начинать темы
Вы можете отвечать на сообщения
Вы не можете редактировать свои сообщения
Вы не можете удалять свои сообщения
Вы не можете голосовать в опросах
Вы не можете прикреплять файлы к сообщениям
Вы можете скачивать файлы