БТшники. Телефильм АТН к 60-летию Белорусского телевидения (Андрей Борчик, Юрий Ярошик) [Беларусь, Белоруссия, 2016, Документальный, DVB-AVC]


Статистика раздачи [Обновить пиров]
Размер:  972 MB   |    Зарегистрирован:  11 месяцев 3 дня   |    Скачан:  0 раз

Полного источника не было: Никогда

 
   
 
 
 

[Цитировать]

БТшники. Телефильм АТН к 60-летию Белорусского телевидения
Год выпуска: 2016
Страна: Республика Беларусь
Жанр: Документальный
Продолжительность: 00:52:26
Перевод: Не требуется
Режиссер: Андрей Борчик, Юрий Ярошик
Телеканал: Беларусь 1
Описание: 1 января 2016 года Белорусскому телевидению исполняется 60 лет. В связи с этой знаменательной датой в эфире "Беларусь 1" будет показан фильм-репортаж, сотканный из множества портретов, реконструкций событий, интересных встреч, архивных материалов и расследований - "БТшники" - пытливый взгляд творческой группы Агентства теленовостей Белтелерадиокомпании на историю отечественного телевидения.
"БТшники" - это своеобразная телевизионная летопись, посвященная становлению и развитию национального телевидения. Знаковые события, интересные факты, громкие имена тех, кто стоял у истоков, и, конечно же, известные всем телезрителям персоны, которые продолжают творить историю сегодня - все это и многое другое корреспонденты Агентства теленовостей под руководством Михаила Ревуцкого собрали в фильме "БТшники", - отметил главный директор Агентства теленовостей Белтелерадиокомпании Иван Эйсмонт.
"Наш фильм - это часть большой телевизионной истории, которая начала писаться в 50-е и сегодня продолжает создаваться на глазах у зрителей на разных кнопках. В этом смысле символично то, что наша лента не заканчивается титрами, а передает в эфире эстафету "Панораме". Наш фильм - это эпизод длиною в 60-летие, который в будущем сменится новыми… Национальная государственная телерадиокомпания - это главные каналы страны. "Беларусь 1" - первая кнопка, "Беларусь 2" - молодежное андеграундное направление, "Беларусь 3" - художественная эстетика и исторический фундамент. В каждую область сегодня приходит "Беларусь 4", а спутниковый канал "Беларусь 24" охватил весь мир. Крепкая пятерка у "Беларусь 5". Телеформы проникают и в онлайн. Безусловно, появились каналы, которые тоже не прочь считать себя главными, но мы знаем, да и они понимают, что все вышли отсюда, с БТ. "БТшники" - это неформальная и даже народная аббревиатура, а значит все причастные имеют право на гордое народное звание БТшники", - подчеркнул автор фильма Михаил Ревуцкий.
События, предшествующие первому выходу в эфир Белорусского телевидения, документы под грифом "строго секретно", которые предадутся огласке впервые, встречи с "первопроходцами", Лица, Личности, Люди, Герои в кадре и за кадром, интересные факты, развенчание телевизионных мифов - все это и многое другое в фильме-репортаже "БТшники".
Доп. информация:
Запись потока *.ts с наземного цифрового телеканала "Беларусь 1", ремукс в *.mkv программой VideoReDo.
Сведение звука без перекодировки mkvtoolnix
Сэмпл: http://multi-up.com/1082482
качество: DVB-AVC
формат: MKV
Видео: MPEG4 Video (H264) 720x576 (49:36) 25fps, 2 283 Kbps
Аудио: MPEG Audio 48000Hz stereo 256kbps

MediaInfo

GeneralUnique ID : 198267229554720456605001779010714312576 (0x9528E122EA496B748EE94D837A019F80)Complete name : D:\Новая земля 2\001 Документальный фильмы\Путешествие\БТшники (2016)\БТшники_2016.mkvFormat : MatroskaFormat version : Version 4 / Version 2File size : 972 MiBDuration : 52mn 26sOverall bit rate : 2 591 KbpsEncoded date : UTC 2016-01-04 14:25:55Writing application : mkvmerge v8.5.1 ('Where you lead I will follow') 32bitWriting library : libebml v1.3.3 + libmatroska v1.4.4
VideoID : 1Format : AVCFormat/Info : Advanced Video CodecFormat profile : Main@L3.0Format settings, CABAC : YesFormat settings, ReFrames : 4 framesCodec ID : V_MPEG4/ISO/AVCDuration : 52mn 26sBit rate : 2 283 KbpsWidth : 720 pixelsHeight : 576 pixelsDisplay aspect ratio : 4:3Original display aspect ratio : 4:3Frame rate mode : ConstantFrame rate : 25.000 fpsStandard : PALColor space : YUVChroma subsampling : 4:2:0Bit depth : 8 bitsScan type : MBAFFScan order : Top Field FirstBits/(Pixel*Frame) : 0.220Stream size : 856 MiB (88%)Default : YesForced : NoColor primaries : BT.601 PALTransfer characteristics : BT.470 System B, BT.470 System GMatrix coefficients : BT.601Color range : LimitedDURATION : 00:52:25.960000000NUMBER_OF_FRAMES : 78649NUMBER_OF_BYTES : 917340241_STATISTICS_WRITING_APP : mkvmerge v8.5.1 ('Where you lead I will follow') 32bit_STATISTICS_WRITING_DATE_UTC : 2016-01-04 14:25:55_STATISTICS_TAGS : BPS DURATION NUMBER_OF_FRAMES NUMBER_OF_BYTES
AudioID : 2Format : MPEG AudioFormat version : Version 1Format profile : Layer 2Codec ID : A_MPEG/L2Codec ID/Hint : MP2Duration : 52mn 26sBit rate mode : ConstantBit rate : 256 KbpsChannel(s) : 2 channelsSampling rate : 48.0 KHzCompression mode : LossyDelay relative to video : 100msStream size : 96.0 MiB (10%)Language : EnglishDefault : YesForced : NoDURATION : 00:52:25.920000000NUMBER_OF_FRAMES : 131080NUMBER_OF_BYTES : 100669440_STATISTICS_WRITING_APP : mkvmerge v8.5.1 ('Where you lead I will follow') 32bit_STATISTICS_WRITING_DATE_UTC : 2016-01-04 14:25:55_STATISTICS_TAGS : BPS DURATION NUMBER_OF_FRAMES NUMBER_OF_BYTES
[teatrix.ru].t12587.torrent 
Торрент: Зарегистрирован [ 2016-01-05 16:15 ] · B502ED06053E2AE1442CBB84B907736E77DF96F1

Скачать .torrent

Скачать

19 KB

Статус: проверено
Скачан: 0 раз
Размер: 972 MB
terms.php



Показать сообщения:    

Текущее время: 08-Дек 19:10

Часовой пояс: UTC + 3


Вы не можете начинать темы
Вы не можете отвечать на сообщения
Вы не можете редактировать свои сообщения
Вы не можете удалять свои сообщения
Вы не можете голосовать в опросах
Вы не можете прикреплять файлы к сообщениям
Вы можете скачивать файлы