(Classical) Manuel de Falla, Cesar Franck, Maurice Ravel - Nights in the Gardens of Spain (Tbilisi Symphony Orchestra, Djansug Kakhidze, Alessandro de Luca, Marisa Tanzini, George Vachnadze) - 2001, FLAC (image+.cue) lossless


Статистика раздачи [Обновить пиров]
Размер:  316 MB   |    Зарегистрирован:  11 месяцев 3 дня   |    Скачан:  0 раз

Полного источника не было: Никогда

 
   
 
 
 

[Цитировать]

Manuel de Falla, Cesar Franck, Maurice Ravel - Nights in the Gardens of Spain
Жанр: Classical
Страна-производитель диска: Europe
Год издания диска: 2001
Издатель (лейбл): HDC
Номер по каталогу: HDC 1041
Дата записи: 2001
Аудиокодек: FLAC
Тип рипа: image+.cue
Битрейт аудио: lossless
Продолжительность: 01:01:01
Источник: собственный рип
Наличие сканов в содержимом раздачи: да
Треклист:
Manuel de Falla
Noches en los Jardines de Espana (Nights in the Gardens of Spain), Symphonic Impressions for Piano and Orchestra
1 I. En el Generalife 10:18
2 II. Danza Lejana 4:44
3 III. En los Jardines de la Sierra de Cordoba 8:22
Cesar Franck
4 Symphonic Variations for Piano and Orchestra 16:47
Morice Ravel
5 Piano Concerto No.2 in D major (For Left Hand) 20:51
Исполнители:
Tbilisi Symphony Orchestra
Djansug Kakhidze - conductor
Alessandro de Luca - piano (1-3)
Marisa Tanzini - piano (4)
George Vachnadze - piano (5)

Лог создания рипа

Exact Audio Copy V1.1 from 23. June 2015
Отчёт EAC об извлечении, выполненном 29. декабря 2015, 23:42
Tbilisi Symphony Orchestra / Nights in the Gardens of Spain
Дисковод: HL-DT-STDVDRAM GT32N Adapter: 1 ID: 0
Режим чтения : ДостоверностьИспользование точного потока : ДаОтключение кэша аудио : ДаИспользование указателей C2 : Нет
Коррекция смещения при чтении : 103Способность читать области Lead-in и Lead-out : НетЗаполнение пропущенных сэмплов тишиной : ДаУдаление блоков с тишиной в начале и конце : НетПри вычислениях CRC использовались нулевые сэмплы : ДаИнтерфейс : Встроенный Win32-интерфейс для Win NT/2000
Выходной формат : Пользовательский кодировщикВыбранный битрейт : 128 kBit/sКачество : ВысокийДобавление ID3-тега : НетУтилита сжатия : C:\Program Files (x86)\Exact Audio Copy\Flac\flac.exeДополнительные параметры : -V -8 -T "Date=%year%" -T "Genre=%genre%" %source%
TOC извлечённого CD
Трек | Старт | Длительность | Начальный сектор | Конечный сектор --------------------------------------------------------------------- 1 | 0:00.00 | 10:18.43 | 0 | 46392 2 | 10:18.43 | 4:43.70 | 46393 | 67687 3 | 15:02.38 | 8:22.34 | 67688 | 105371 4 | 23:24.72 | 16:48.23 | 105372 | 180994 5 | 40:13.20 | 20:49.52 | 180995 | 274721
Характеристики диапазона извлечения и сообщения об ошибках
Выбранный диапазон
Имя файла C:\Users\Elvis\Documents\Tbilisi Symphony Orchestra - Nights in the Gardens of Spain\Tbilisi Symphony Orchestra - Nights in the Gardens of Spain.wav
Пиковый уровень 98.8 % Скорость извлечения 2.1 X Качество диапазона 99.9 % CRC теста 8402DAF5 CRC копии 8402DAF5 Копирование... OK
Ошибок не произошло
AccurateRip: сводка
Трек 1 : извлечено точно (доверие 1) [41F87CC5] (AR v2)Трек 2 : извлечено точно (доверие 1) [0698EEFE] (AR v2)Трек 3 : извлечено точно (доверие 1) [9573F2A5] (AR v2)Трек 4 : извлечено точно (доверие 1) [EA0B8FB2] (AR v2)Трек 5 : извлечено точно (доверие 1) [7D24C6C8] (AR v2)
Все треки извлечены точно
Конец отчёта
==== Контрольная сумма отчёта 6BCC09BC9D39B8D3599029485A5EC2D965713713002F043188B527E09B503D66 ====

Содержание индексной карты (.CUE)

REM GENRE ClassicalREM DATE 2001REM DISCID 2E0E4E05REM COMMENT "ExactAudioCopy v1.1"PERFORMER "Tbilisi Symphony Orchestra"TITLE "Nights in the Gardens of Spain"FILE "Tbilisi Symphony Orchestra - Nights in the Gardens of Spain.flac" WAVE TRACK 01 AUDIO TITLE "Nights in the Gardens of Spain I En el Generalife" PERFORMER "Tbilisi Symphony Orchestra" INDEX 01 00:00:00 TRACK 02 AUDIO TITLE "Nights in the Gardens of Spain II Danza lejana" PERFORMER "Tbilisi Symphony Orchestra" INDEX 00 10:17:33 INDEX 01 10:18:43 TRACK 03 AUDIO TITLE "Nights in the Gardens of Spain III En los jairdins de la Sierra de Cordoba" PERFORMER "Tbilisi Symphony Orchestra" INDEX 01 15:02:38 TRACK 04 AUDIO TITLE "Symphonic Variations" PERFORMER "Tbilisi Symphony Orchestra" INDEX 00 23:20:13 INDEX 01 23:24:72 TRACK 05 AUDIO TITLE "Piano Concerto No.2 in D major" PERFORMER "Tbilisi Symphony Orchestra" INDEX 00 40:09:73 INDEX 01 40:13:20
[teatrix.ru].t12588.torrent 
Торрент: Зарегистрирован [ 2016-01-05 16:15 ] · CB5282E1482FBA90B9592B2970E4180245AA0661

Скачать .torrent

Скачать

14 KB

Статус: проверено
Скачан: 0 раз
Размер: 316 MB
terms.php



Быстрый ответ

Имя:

      
Для отправки сообщений необходимо включить JavaScript
Показать сообщения:    

Текущее время: 08-Дек 19:11

Часовой пояс: UTC + 3


Вы можете начинать темы
Вы можете отвечать на сообщения
Вы не можете редактировать свои сообщения
Вы не можете удалять свои сообщения
Вы не можете голосовать в опросах
Вы не можете прикреплять файлы к сообщениям
Вы можете скачивать файлы