(Classical/Chamber/Baroque) Luigi Boccherini: Sonates & Concertos Pour Violoncelle (Les Basses Reunies, Bruno Cocset) - 2015, FLAC (tracks+.cue) lossless


 

[Цитировать]

Les Basses Réunies • Bruno Cocset
Luigi Boccherini: Sonates & Concertos Pour Violoncelle-Год издания: 2015 • Длительность: 01:01:57
Жанр: Classical/Chamber/Baroque • Лейбл: Alpha • : ALPHA084
Кодек: FLAC • Битрейт: lossless • Тип рипа: tracks+.cue
Источник: what.cd • Сканы: отсутствуют
-Concerto en la majeur
Sonate no.7 en si bémol majeur
Sonate en do major
Concerto en sol majeur
Sonate no.6 en la majeur
-Bruno Cocset, cello, direction | Les Basses Réunies-Об исполнителе:Bruno Cocset (род. 1963, Франция) на сегодня один из самых влиятельных барочных виолончелистов. Окончив консерваторию продолжал обучению у Аннер Билсма, Япа Шрёдера и Кристофа Койна. Работал с самыми известными аутентичными ансамблями Европы, записываясь в основном с Le Concert des Nations Жорди Саваля до того, как создал свой собственный барочный ансамбль Les Basses Réunies. Бруно славится "спасением" забытых композиторов таких как Жан-Батиста Баре или Эваристо Феличе Даль Абако, и двумя новаторскими записями обширных сборников, включая сюиты для виолончели И.С. Баха и виолончельные концерты и сонаты Вивальди.

EAC

X Lossless Decoder version 20140504 (147.0)
XLD extraction logfile from 2014-06-03 22:33:41 -0400
Luigi Boccherini; Bruno Cocset, Les Basses Réunies / Sonates & Concertos Pour Violoncelle
Used drive : MATSHITA DVD-R UJ-8A8 (revision HB14)
Media type : Pressed CD
Ripper mode : XLD Secure Ripper
Disable audio cache : OK for the drive with a cache less than 1375KiB
Make use of C2 pointers : NO
Read offset correction : 102
Max retry count : 40
Gap status : Analyzed, Appended (except HTOA)
TOC of the extracted CD
Track | Start | Length | Start sector | End sector
---------------------------------------------------------
1 | 00:00:00 | 04:21:35 | 0 | 19609
2 | 04:21:35 | 03:52:57 | 19610 | 37066
3 | 08:14:17 | 01:30:54 | 37067 | 43870
4 | 09:44:71 | 06:41:00 | 43871 | 73945
5 | 16:25:71 | 04:36:45 | 73946 | 94690
6 | 21:02:41 | 04:09:12 | 94691 | 113377
7 | 25:11:53 | 05:25:27 | 113378 | 137779
8 | 30:37:05 | 02:40:48 | 137780 | 149827
9 | 33:17:53 | 03:16:42 | 149828 | 164569
10 | 36:34:20 | 05:26:60 | 164570 | 189079
11 | 42:01:05 | 04:39:06 | 189080 | 210010
12 | 46:40:11 | 03:00:66 | 210011 | 223576
13 | 49:41:02 | 04:41:24 | 223577 | 244675
14 | 54:22:26 | 05:41:03 | 244676 | 270253
15 | 60:03:29 | 01:54:19 | 270254 | 278822
List of alternate offset correction values
# | Absolute | Relative | Confidence
------------------------------------------
1 | -559 | -661 | 2
AccurateRip Summary (DiscID: 0022599a-0186a307-f00e850f)
Track 01 : OK (v1+v2, confidence 16/18)
Track 02 : OK (v1+v2, confidence 16/18)
Track 03 : OK (v1+v2, confidence 16/18)
Track 04 : OK (v1+v2, confidence 16/18)
Track 05 : OK (v1+v2, confidence 16/18)
Track 06 : OK (v1+v2, confidence 16/18)
Track 07 : OK (v1+v2, confidence 16/18)
Track 08 : OK (v1+v2, confidence 16/18)
Track 09 : OK (v1+v2, confidence 16/18)
Track 10 : OK (v1+v2, confidence 16/18)
Track 11 : OK (v1+v2, confidence 16/18)
Track 12 : OK (v1+v2, confidence 16/18)
Track 13 : OK (v1+v2, confidence 16/18)
Track 14 : OK (v1+v2, confidence 16/18)
Track 15 : OK (v1+v2, confidence 16/18)
->All tracks accurately ripped.
All Tracks
Album gain : 0.58 dB
Peak : 1.000000
Statistics
Read error : 0
Jitter error (maybe fixed) : 0
Retry sector count : 0
Damaged sector count : 0
Track 01
Filename : /Users/argentum/Downloads/WCD/UP UP UP/Luigi Boccherini; Bruno Cocset, Les Basses Réunies - Sonates & Concertos Pour Violoncelle (2005) [FLAC]/01 Concerto en la majeur : I. Allegro.flac
Pre-gap length : 00:02:00
Track gain : 0.04 dB
Peak : 0.606476
CRC32 hash (test run) : CF7F8F30
CRC32 hash : CF7F8F30
CRC32 hash (skip zero) : 7D7AE789
AccurateRip v1 signature : DBD8DC70
AccurateRip v2 signature : 07401939
->Accurately ripped (v1+v2, confidence 4+12/18)
Statistics
Read error : 0
Jitter error (maybe fixed) : 0
Retry sector count : 0
Damaged sector count : 0
Track 02
Filename : /Users/argentum/Downloads/WCD/UP UP UP/Luigi Boccherini; Bruno Cocset, Les Basses Réunies - Sonates & Concertos Pour Violoncelle (2005) [FLAC]/02 Concerto en la majeur : II. Adagio.flac
Track gain : 0.80 dB
Peak : 0.767487
CRC32 hash (test run) : A72E6625
CRC32 hash : A72E6625
CRC32 hash (skip zero) : CF5FCC53
AccurateRip v1 signature : 728A2E56
AccurateRip v2 signature : ED808945
->Accurately ripped (v1+v2, confidence 4+12/18)
Statistics
Read error : 0
Jitter error (maybe fixed) : 0
Retry sector count : 0
Damaged sector count : 0
Track 03
Filename : /Users/argentum/Downloads/WCD/UP UP UP/Luigi Boccherini; Bruno Cocset, Les Basses Réunies - Sonates & Concertos Pour Violoncelle (2005) [FLAC]/03 Concerto en la majeur : III. Rondo allegro.flac
Track gain : 0.98 dB
Peak : 0.995697
CRC32 hash (test run) : BB35EA05
CRC32 hash : BB35EA05
CRC32 hash (skip zero) : 3AAE2FC3
AccurateRip v1 signature : 0F384741
AccurateRip v2 signature : A15CC5B4
->Accurately ripped (v1+v2, confidence 4+12/18)
Statistics
Read error : 0
Jitter error (maybe fixed) : 0
Retry sector count : 0
Damaged sector count : 0
Track 04
Filename : /Users/argentum/Downloads/WCD/UP UP UP/Luigi Boccherini; Bruno Cocset, Les Basses Réunies - Sonates & Concertos Pour Violoncelle (2005) [FLAC]/04 Sonate no.7 en si bémol majeur : I. Allegro moderato.flac
Track gain : -0.06 dB
Peak : 1.000000
CRC32 hash (test run) : 5568E20E
CRC32 hash : 5568E20E
CRC32 hash (skip zero) : F31EE183
AccurateRip v1 signature : 5892E89F
AccurateRip v2 signature : 480EB14D
->Accurately ripped (v1+v2, confidence 4+12/18)
Statistics
Read error : 0
Jitter error (maybe fixed) : 0
Retry sector count : 0
Damaged sector count : 0
Track 05
Filename : /Users/argentum/Downloads/WCD/UP UP UP/Luigi Boccherini; Bruno Cocset, Les Basses Réunies - Sonates & Concertos Pour Violoncelle (2005) [FLAC]/05 Sonate no.7 en si bémol majeur : II. Largo, allegro, adagio.flac
Track gain : 0.53 dB
Peak : 0.887054
CRC32 hash (test run) : 07D88FC4
CRC32 hash : 07D88FC4
CRC32 hash (skip zero) : B9A25754
AccurateRip v1 signature : E42F68AB
AccurateRip v2 signature : 6E754AAC
->Accurately ripped (v1+v2, confidence 4+12/18)
Statistics
Read error : 0
Jitter error (maybe fixed) : 0
Retry sector count : 0
Damaged sector count : 0
Track 06
Filename : /Users/argentum/Downloads/WCD/UP UP UP/Luigi Boccherini; Bruno Cocset, Les Basses Réunies - Sonates & Concertos Pour Violoncelle (2005) [FLAC]/06 Sonate no.7 en si bémol majeur : III. Allegro.flac
Track gain : 1.06 dB
Peak : 0.876007
CRC32 hash (test run) : 8626212A
CRC32 hash : 8626212A
CRC32 hash (skip zero) : 754925DC
AccurateRip v1 signature : D76A86D5
AccurateRip v2 signature : 612546FA
->Accurately ripped (v1+v2, confidence 4+12/18)
Statistics
Read error : 0
Jitter error (maybe fixed) : 0
Retry sector count : 0
Damaged sector count : 0
Track 07
Filename : /Users/argentum/Downloads/WCD/UP UP UP/Luigi Boccherini; Bruno Cocset, Les Basses Réunies - Sonates & Concertos Pour Violoncelle (2005) [FLAC]/07 Sonate en do major : I. Allegro.flac
Track gain : 0.42 dB
Peak : 0.968933
CRC32 hash (test run) : ADFEDEF7
CRC32 hash : ADFEDEF7
CRC32 hash (skip zero) : D12523DF
AccurateRip v1 signature : B16CCD15
AccurateRip v2 signature : C34C5695
->Accurately ripped (v1+v2, confidence 4+12/18)
Statistics
Read error : 0
Jitter error (maybe fixed) : 0
Retry sector count : 0
Damaged sector count : 0
Track 08
Filename : /Users/argentum/Downloads/WCD/UP UP UP/Luigi Boccherini; Bruno Cocset, Les Basses Réunies - Sonates & Concertos Pour Violoncelle (2005) [FLAC]/08 Sonate en do major : II. Largo assai.flac
Track gain : 2.37 dB
Peak : 0.661682
CRC32 hash (test run) : E21A86FF
CRC32 hash : E21A86FF
CRC32 hash (skip zero) : CA630727
AccurateRip v1 signature : DEEF4CEF
AccurateRip v2 signature : 1D142059
->Accurately ripped (v1+v2, confidence 4+12/18)
Statistics
Read error : 0
Jitter error (maybe fixed) : 0
Retry sector count : 0
Damaged sector count : 0
Track 09
Filename : /Users/argentum/Downloads/WCD/UP UP UP/Luigi Boccherini; Bruno Cocset, Les Basses Réunies - Sonates & Concertos Pour Violoncelle (2005) [FLAC]/09 Sonate en do major : III. Rondo allegro.flac
Track gain : 0.54 dB
Peak : 0.935150
CRC32 hash (test run) : 705272FA
CRC32 hash : 705272FA
CRC32 hash (skip zero) : 97277EB7
AccurateRip v1 signature : 8F9D1A46
AccurateRip v2 signature : AF81E03D
->Accurately ripped (v1+v2, confidence 4+12/18)
Statistics
Read error : 0
Jitter error (maybe fixed) : 0
Retry sector count : 0
Damaged sector count : 0
Track 10
Filename : /Users/argentum/Downloads/WCD/UP UP UP/Luigi Boccherini; Bruno Cocset, Les Basses Réunies - Sonates & Concertos Pour Violoncelle (2005) [FLAC]/10 Concerto en sol majeur : I. Allegro.flac
Track gain : -0.88 dB
Peak : 0.908356
CRC32 hash (test run) : 59377C22
CRC32 hash : 59377C22
CRC32 hash (skip zero) : CAE46F7E
AccurateRip v1 signature : BCEDC44B
AccurateRip v2 signature : 369406C0
->Accurately ripped (v1+v2, confidence 4+12/18)
Statistics
Read error : 0
Jitter error (maybe fixed) : 0
Retry sector count : 0
Damaged sector count : 0
Track 11
Filename : /Users/argentum/Downloads/WCD/UP UP UP/Luigi Boccherini; Bruno Cocset, Les Basses Réunies - Sonates & Concertos Pour Violoncelle (2005) [FLAC]/11 Concerto en sol majeur : II. Adagio.flac
Track gain : 1.35 dB
Peak : 0.625122
CRC32 hash (test run) : 9E7C8ADD
CRC32 hash : 9E7C8ADD
CRC32 hash (skip zero) : 09D1C258
AccurateRip v1 signature : C81E1C47
AccurateRip v2 signature : 83F4AD93
->Accurately ripped (v1+v2, confidence 4+12/18)
Statistics
Read error : 0
Jitter error (maybe fixed) : 0
Retry sector count : 0
Damaged sector count : 0
Track 12
Filename : /Users/argentum/Downloads/WCD/UP UP UP/Luigi Boccherini; Bruno Cocset, Les Basses Réunies - Sonates & Concertos Pour Violoncelle (2005) [FLAC]/12 Concerto en sol majeur : III. Allegro.flac
Track gain : -0.42 dB
Peak : 0.929321
CRC32 hash (test run) : 840EE3B9
CRC32 hash : 840EE3B9
CRC32 hash (skip zero) : 0EAE2528
AccurateRip v1 signature : CF15CF19
AccurateRip v2 signature : 3DB7539B
->Accurately ripped (v1+v2, confidence 4+12/18)
Statistics
Read error : 0
Jitter error (maybe fixed) : 0
Retry sector count : 0
Damaged sector count : 0
Track 13
Filename : /Users/argentum/Downloads/WCD/UP UP UP/Luigi Boccherini; Bruno Cocset, Les Basses Réunies - Sonates & Concertos Pour Violoncelle (2005) [FLAC]/13 Sonate no.6 en la majeur : I. Adagio.flac
Track gain : 3.02 dB
Peak : 0.610260
CRC32 hash (test run) : 55DC72BD
CRC32 hash : 55DC72BD
CRC32 hash (skip zero) : 6B3830CD
AccurateRip v1 signature : DB0F83EB
AccurateRip v2 signature : E27E0A2C
->Accurately ripped (v1+v2, confidence 4+12/18)
Statistics
Read error : 0
Jitter error (maybe fixed) : 0
Retry sector count : 0
Damaged sector count : 0
Track 14
Filename : /Users/argentum/Downloads/WCD/UP UP UP/Luigi Boccherini; Bruno Cocset, Les Basses Réunies - Sonates & Concertos Pour Violoncelle (2005) [FLAC]/14 Sonate no.6 en la majeur : II. Allegro.flac
Track gain : 1.67 dB
Peak : 0.545624
CRC32 hash (test run) : 68ABA0AF
CRC32 hash : 68ABA0AF
CRC32 hash (skip zero) : E144739B
AccurateRip v1 signature : 12232ACA
AccurateRip v2 signature : 7E5ED2E5
->Accurately ripped (v1+v2, confidence 4+12/18)
Statistics
Read error : 0
Jitter error (maybe fixed) : 0
Retry sector count : 0
Damaged sector count : 0
Track 15
Filename : /Users/argentum/Downloads/WCD/UP UP UP/Luigi Boccherini; Bruno Cocset, Les Basses Réunies - Sonates & Concertos Pour Violoncelle (2005) [FLAC]/15 Sonate no.6 en la majeur : III. Affetuoso.flac
Track gain : 1.80 dB
Peak : 0.672638
CRC32 hash (test run) : C7861FFF
CRC32 hash : C7861FFF
CRC32 hash (skip zero) : E46AC32C
AccurateRip v1 signature : BD093962
AccurateRip v2 signature : 9DD9C35D
->Accurately ripped (v1+v2, confidence 4+12/18)
Statistics
Read error : 0
Jitter error (maybe fixed) : 0
Retry sector count : 0
Damaged sector count : 0
No errors occurred
End of status report
-----BEGIN XLD SIGNATURE-----
G5ufu_YfCmeBfMQkxZKPevCy.4BshiwrIHCIB_t9AkW3LgY6E8gKmxFw1yzKItwD7eWBrELo33aMwRsWzZCs5KLGq.8lSiAWMkFK9Na
-----END XLD SIGNATURE-----

cue

TITLE "Sonates & Concertos Pour Violoncelle"
PERFORMER "Luigi Boccherini; Bruno Cocset, Les Basses Réunies"
REM GENRE "Classical"
REM DATE "2005-12-27"
REM DISCNUMBER 1
REM TOTALDISCS 1
REM DISCID F00E850F
REM REPLAYGAIN_ALBUM_GAIN 0.58 dB
REM REPLAYGAIN_ALBUM_PEAK 1.000000
REM COMPILATION TRUE
FILE "01 Concerto en la majeur : I. Allegro.flac" WAVE
TRACK 01 AUDIO
TITLE "Concerto en la majeur : I. Allegro"
PERFORMER "Luigi Boccherini"
SONGWRITER "Boccherini, Luigi/Luigi Boccherini"
REM REPLAYGAIN_TRACK_GAIN 0.04 dB
REM REPLAYGAIN_TRACK_PEAK 0.606476
INDEX 01 00:00:00
FILE "02 Concerto en la majeur : II. Adagio.flac" WAVE
TRACK 02 AUDIO
TITLE "Concerto en la majeur : II. Adagio"
PERFORMER "Luigi Boccherini"
SONGWRITER "Boccherini, Luigi/Luigi Boccherini"
REM REPLAYGAIN_TRACK_GAIN 0.80 dB
REM REPLAYGAIN_TRACK_PEAK 0.767487
INDEX 01 00:00:00
FILE "03 Concerto en la majeur : III. Rondo allegro.flac" WAVE
TRACK 03 AUDIO
TITLE "Concerto en la majeur : III. Rondo allegro"
PERFORMER "Luigi Boccherini"
SONGWRITER "Boccherini, Luigi/Luigi Boccherini"
REM REPLAYGAIN_TRACK_GAIN 0.98 dB
REM REPLAYGAIN_TRACK_PEAK 0.995697
INDEX 01 00:00:00
FILE "04 Sonate no.7 en si bémol majeur : I. Allegro moderato.flac" WAVE
TRACK 04 AUDIO
TITLE "Sonate no.7 en si bémol majeur : I. Allegro moderato"
PERFORMER "Luigi Boccherini"
SONGWRITER "Boccherini, Luigi/Luigi Boccherini"
REM REPLAYGAIN_TRACK_GAIN -0.06 dB
REM REPLAYGAIN_TRACK_PEAK 1.000000
INDEX 01 00:00:00
FILE "05 Sonate no.7 en si bémol majeur : II. Largo, allegro, adagio.flac" WAVE
TRACK 05 AUDIO
TITLE "Sonate no.7 en si bémol majeur : II. Largo, allegro, adagio"
PERFORMER "Luigi Boccherini"
SONGWRITER "Boccherini, Luigi/Luigi Boccherini"
REM REPLAYGAIN_TRACK_GAIN 0.53 dB
REM REPLAYGAIN_TRACK_PEAK 0.887054
INDEX 01 00:00:00
FILE "06 Sonate no.7 en si bémol majeur : III. Allegro.flac" WAVE
TRACK 06 AUDIO
TITLE "Sonate no.7 en si bémol majeur : III. Allegro"
PERFORMER "Luigi Boccherini"
SONGWRITER "Boccherini, Luigi/Luigi Boccherini"
REM REPLAYGAIN_TRACK_GAIN 1.06 dB
REM REPLAYGAIN_TRACK_PEAK 0.876007
INDEX 01 00:00:00
FILE "07 Sonate en do major : I. Allegro.flac" WAVE
TRACK 07 AUDIO
TITLE "Sonate en do major : I. Allegro"
PERFORMER "Luigi Boccherini"
SONGWRITER "Boccherini, Luigi/Luigi Boccherini"
REM REPLAYGAIN_TRACK_GAIN 0.42 dB
REM REPLAYGAIN_TRACK_PEAK 0.968933
INDEX 01 00:00:00
FILE "08 Sonate en do major : II. Largo assai.flac" WAVE
TRACK 08 AUDIO
TITLE "Sonate en do major : II. Largo assai"
PERFORMER "Luigi Boccherini"
SONGWRITER "Boccherini, Luigi/Luigi Boccherini"
REM REPLAYGAIN_TRACK_GAIN 2.37 dB
REM REPLAYGAIN_TRACK_PEAK 0.661682
INDEX 01 00:00:00
FILE "09 Sonate en do major : III. Rondo allegro.flac" WAVE
TRACK 09 AUDIO
TITLE "Sonate en do major : III. Rondo allegro"
PERFORMER "Luigi Boccherini"
SONGWRITER "Boccherini, Luigi/Luigi Boccherini"
REM REPLAYGAIN_TRACK_GAIN 0.54 dB
REM REPLAYGAIN_TRACK_PEAK 0.935150
INDEX 01 00:00:00
FILE "10 Concerto en sol majeur : I. Allegro.flac" WAVE
TRACK 10 AUDIO
TITLE "Concerto en sol majeur : I. Allegro"
PERFORMER "Luigi Boccherini"
SONGWRITER "Boccherini, Luigi/Luigi Boccherini"
REM REPLAYGAIN_TRACK_GAIN -0.88 dB
REM REPLAYGAIN_TRACK_PEAK 0.908356
INDEX 01 00:00:00
FILE "11 Concerto en sol majeur : II. Adagio.flac" WAVE
TRACK 11 AUDIO
TITLE "Concerto en sol majeur : II. Adagio"
PERFORMER "Luigi Boccherini"
SONGWRITER "Boccherini, Luigi/Luigi Boccherini"
REM REPLAYGAIN_TRACK_GAIN 1.35 dB
REM REPLAYGAIN_TRACK_PEAK 0.625122
INDEX 01 00:00:00
FILE "12 Concerto en sol majeur : III. Allegro.flac" WAVE
TRACK 12 AUDIO
TITLE "Concerto en sol majeur : III. Allegro"
PERFORMER "Luigi Boccherini"
SONGWRITER "Boccherini, Luigi/Luigi Boccherini"
REM REPLAYGAIN_TRACK_GAIN -0.42 dB
REM REPLAYGAIN_TRACK_PEAK 0.929321
INDEX 01 00:00:00
FILE "13 Sonate no.6 en la majeur : I. Adagio.flac" WAVE
TRACK 13 AUDIO
TITLE "Sonate no.6 en la majeur : I. Adagio"
PERFORMER "Luigi Boccherini"
SONGWRITER "Boccherini, Luigi/Luigi Boccherini"
REM REPLAYGAIN_TRACK_GAIN 3.02 dB
REM REPLAYGAIN_TRACK_PEAK 0.610260
INDEX 01 00:00:00
FILE "14 Sonate no.6 en la majeur : II. Allegro.flac" WAVE
TRACK 14 AUDIO
TITLE "Sonate no.6 en la majeur : II. Allegro"
PERFORMER "Luigi Boccherini"
SONGWRITER "Boccherini, Luigi/Luigi Boccherini"
REM REPLAYGAIN_TRACK_GAIN 1.67 dB
REM REPLAYGAIN_TRACK_PEAK 0.545624
INDEX 01 00:00:00
FILE "15 Sonate no.6 en la majeur : III. Affetuoso.flac" WAVE
TRACK 15 AUDIO
TITLE "Sonate no.6 en la majeur : III. Affetuoso"
PERFORMER "Luigi Boccherini"
SONGWRITER "Boccherini, Luigi/Luigi Boccherini"
REM REPLAYGAIN_TRACK_GAIN 1.80 dB
REM REPLAYGAIN_TRACK_PEAK 0.672638
INDEX 01 00:00:00

fooCDtest

fooCDtect - foobar2000 + auCDtect, baralgin.
auCDtect: CD records authenticity detector, version 0.8.2
Copyright (c) 2004 Oleg Berngardt. All rights reserved.
Copyright (c) 2004 Alexander Djourik. All rights reserved.
mode: 0
===========================================
Track: 01. Concerto en la majeur - I. Allegro
Quality: CDDA 100%
===========================================
Track: 04. Sonate no.7 en si bémol majeur - I. Allegro moderato
Quality: CDDA 100%
===========================================
Track: 02. Concerto en la majeur - II. Adagio
Quality: CDDA 100%
===========================================
Track: 05. Sonate no.7 en si bémol majeur - II. Largo, allegro, adagio
Quality: CDDA 100%
===========================================
Track: 03. Concerto en la majeur - III. Rondo allegro
Quality: CDDA 100%
===========================================
Track: 06. Sonate no.7 en si bémol majeur - III. Allegro
Quality: CDDA 100%
===========================================
Track: 08. Sonate en do major - II. Largo assai
Quality: CDDA 100%
===========================================
Track: 09. Sonate en do major - III. Rondo allegro
Quality: CDDA 100%
===========================================
Track: 11. Concerto en sol majeur - II. Adagio
Quality: CDDA 100%
===========================================
Track: 12. Concerto en sol majeur - III. Allegro
Quality: CDDA 99%
===========================================
Track: 07. Sonate en do major - I. Allegro
Quality: CDDA 100%
===========================================
Track: 13. Sonate no.6 en la majeur - I. Adagio
Quality: CDDA 100%
===========================================
Track: 15. Sonate no.6 en la majeur - III. Affetuoso
Quality: CDDA 100%
===========================================
Track: 10. Concerto en sol majeur - I. Allegro
Quality: CDDA 99%
===========================================
Track: 14. Sonate no.6 en la majeur - II. Allegro
Quality: CDDA 99%
===========================================

spectrum

Track 01



Показать сообщения:    

Текущее время: 05-Дек 05:28

Часовой пояс: UTC + 3


Вы не можете начинать темы
Вы не можете отвечать на сообщения
Вы не можете редактировать свои сообщения
Вы не можете удалять свои сообщения
Вы не можете голосовать в опросах
Вы не можете прикреплять файлы к сообщениям
Вы не можете скачивать файлы