(Soundtrack) Миллениум Мамбо / Qian xi man po / Millennium Mambo (by Lim Giong & VA) - 2001, FLAC (tracks+.cue), lossless


Статистика раздачи [Обновить пиров]
Размер:  337 MB   |    Зарегистрирован:  11 месяцев 3 дня   |    Скачан:  2 раза
Сидов:  1  [  0 KB/s  ]   Личеров:  4  [  0 KB/s  ]   Подробная статистика пиров
 
   
 
 
 

[Цитировать]

Миллениум Мамбо / Qian xi man po / Millennium Mambo
-Жанр: Soundtrack
Композитор: Lim Giong
Год выпуска диска: 2001
Страна-производитель диска: Germany
Издатель (лейбл): Milan
Номер по каталогу: 5050466 3002 2 5-Аудиокодек: FLAC (*.flac)
Тип рипа: tracks+.cue
Битрейт аудио: lossless
Продолжительность: 00:54:48
Источник: what.cd
Наличие сканов в содержимом раздачи: нет-Треклист:
01 Lim Giong - A Pure Person
02 Lim Giong - Medicine For Healthy People
03 Lim Giong - Fly To The Sky
04 Lim Giong - Chat
05 Lim Giong - Moth Flies To The Fire
06 Moby - Why Does My Heart Feel So Bad? (Katcha Remix)
07 G-Force - A New Day
08 DJ Finorski - Techno Wave Is Back
09 Dawn Tallman - Be Encouraged
10 Lim Giong - Lighting Road

Лог создания рипа

Exact Audio Copy V1.0 beta 1 from 15. November 2010
EAC extraction logfile from 15. March 2011, 19:20
Various / Millennium Mambo (Original Motion Picture Soundtrack)
Used drive : ATAPI DVD A DH20A3P Adapter: 2 ID: 1
Read mode : SecureUtilize accurate stream : YesDefeat audio cache : YesMake use of C2 pointers : No
Read offset correction : 6Overread into Lead-In and Lead-Out : NoFill up missing offset samples with silence : YesDelete leading and trailing silent blocks : NoNull samples used in CRC calculations : YesUsed interface : Native Win32 interface for Win NT & 2000Gap handling : Appended to previous track
Used output format : User Defined EncoderSelected bitrate : 32 kBit/sQuality : HighAdd ID3 tag : NoCommand line compressor : C:\Program Files (x86)\Exact Audio Copy 1.0\Flac\flac.exeAdditional command line options : -V -8 -T "artist=%a" -T "title=%t" -T "album=%g" -T "date=%y" -T "tracknumber=%n" -T "genre=%m" %s
TOC of the extracted CD
Track | Start | Length | Start sector | End sector --------------------------------------------------------- 1 | 0:00.00 | 5:21.74 | 0 | 24148 2 | 5:21.74 | 4:46.28 | 24149 | 45626 3 | 10:08.27 | 4:56.37 | 45627 | 67863 4 | 15:04.64 | 5:14.53 | 67864 | 91466 5 | 20:19.42 | 3:20.54 | 91467 | 106520 6 | 23:40.21 | 7:08.64 | 106521 | 138684 7 | 30:49.10 | 6:03.41 | 138685 | 165950 8 | 36:52.51 | 5:48.08 | 165951 | 192058 9 | 42:40.59 | 8:01.43 | 192059 | 228176 10 | 50:42.27 | 4:11.24 | 228177 | 247025
Track 1
Filename E:\Rips\EAC\VA - 2001 - Millennium Mambo (Original Motion Picture Soundtrack)\01 - Lim Giong - A Pure Person.wav
Pre-gap length 0:00:02.00
Peak level 96.3 % Extraction speed 3.6 X Track quality 100.0 % Test CRC 3DFFFFAE Copy CRC 3DFFFFAE Cannot be verified as accurate (confidence 1) [DB3E01C8], AccurateRip returned [70B31ED7] Copy OK
Track 2
Filename E:\Rips\EAC\VA - 2001 - Millennium Mambo (Original Motion Picture Soundtrack)\02 - Lim Giong - Medicine for Healthy People.wav
Peak level 99.3 % Extraction speed 4.0 X Track quality 100.0 % Test CRC FA6C49E4 Copy CRC FA6C49E4 Cannot be verified as accurate (confidence 1) [79B9189C], AccurateRip returned [3C0F4AE4] Copy OK
Track 3
Filename E:\Rips\EAC\VA - 2001 - Millennium Mambo (Original Motion Picture Soundtrack)\03 - Lim Giong - Fly to the Sky.wav
Peak level 99.2 % Extraction speed 4.5 X Track quality 100.0 % Test CRC F44E8A38 Copy CRC F44E8A38 Cannot be verified as accurate (confidence 1) [7C0AA53D], AccurateRip returned [9EC9B3E0] Copy OK
Track 4
Filename E:\Rips\EAC\VA - 2001 - Millennium Mambo (Original Motion Picture Soundtrack)\04 - Lim Giong - A Chat.wav
Peak level 100.0 % Extraction speed 4.9 X Track quality 100.0 % Test CRC A37360C8 Copy CRC A37360C8 Cannot be verified as accurate (confidence 1) [F78BCECA], AccurateRip returned [8C8571C0] Copy OK
Track 5
Filename E:\Rips\EAC\VA - 2001 - Millennium Mambo (Original Motion Picture Soundtrack)\05 - Lim Giong - A Moth Flies to the Fire.wav
Peak level 84.9 % Extraction speed 4.9 X Track quality 100.0 % Test CRC C313B46D Copy CRC C313B46D Cannot be verified as accurate (confidence 1) [D22310F4], AccurateRip returned [13A3622C] Copy OK
Track 6
Filename E:\Rips\EAC\VA - 2001 - Millennium Mambo (Original Motion Picture Soundtrack)\06 - Moby - Why Does My Heart Feel So Bad (Katcha Remix).wav
Peak level 99.1 % Extraction speed 5.7 X Track quality 100.0 % Test CRC 994BE9AA Copy CRC 994BE9AA Cannot be verified as accurate (confidence 1) [1528A33A], AccurateRip returned [2DA5EAD7] Copy OK
Track 7
Filename E:\Rips\EAC\VA - 2001 - Millennium Mambo (Original Motion Picture Soundtrack)\07 - G Force - A New Day.wav
Peak level 100.0 % Extraction speed 6.0 X Track quality 100.0 % Test CRC AD79C35D Copy CRC AD79C35D Cannot be verified as accurate (confidence 1) [F4338608], AccurateRip returned [07497384] Copy OK
Track 8
Filename E:\Rips\EAC\VA - 2001 - Millennium Mambo (Original Motion Picture Soundtrack)\08 - DJ Finorski - The Techno Wave Is Back.wav
Peak level 79.4 % Extraction speed 6.3 X Track quality 100.0 % Test CRC 5E3E9B95 Copy CRC 5E3E9B95 Cannot be verified as accurate (confidence 1) [2FD7E978], AccurateRip returned [CF87C394] Copy OK
Track 9
Filename E:\Rips\EAC\VA - 2001 - Millennium Mambo (Original Motion Picture Soundtrack)\09 - Dawn Tallman - Be Encouraged.wav
Peak level 100.0 % Extraction speed 6.9 X Track quality 100.0 % Test CRC 585E5001 Copy CRC 585E5001 Cannot be verified as accurate (confidence 1) [B09D1A98], AccurateRip returned [69D59377] Copy OK
Track 10
Filename E:\Rips\EAC\VA - 2001 - Millennium Mambo (Original Motion Picture Soundtrack)\10 - Lim Giong - Lighting Road.wav
Peak level 99.3 % Extraction speed 6.8 X Track quality 100.0 % Test CRC B3DF4CA4 Copy CRC B3DF4CA4 Cannot be verified as accurate (confidence 1) [213AE492], AccurateRip returned [78CB9F4D] Copy OK
No tracks could be verified as accurateYou may have a different pressing from the one(s) in the database
No errors occurred
End of status report
==== Log checksum A3C1DAE73867DF1FFB4050F39748D76F67349EDE7229934F9EE63425C6546EDB ====

Содержание индексной карты (.CUE)

REM GENRE SoundtrackREM DATE 2001REM DISCID 610CDD0AREM COMMENT "ExactAudioCopy v1.0b1"PERFORMER "Various"TITLE "Millennium Mambo (Original Motion Picture Soundtrack)"FILE "01 - Lim Giong - A Pure Person.wav" WAVE TRACK 01 AUDIO TITLE "A Pure Person" PERFORMER "Lim Giong" INDEX 01 00:00:00FILE "02 - Lim Giong - Medicine for Healthy People.wav" WAVE TRACK 02 AUDIO TITLE "Medicine for Healthy People" PERFORMER "Lim Giong" INDEX 01 00:00:00FILE "03 - Lim Giong - Fly to the Sky.wav" WAVE TRACK 03 AUDIO TITLE "Fly to the Sky" PERFORMER "Lim Giong" INDEX 01 00:00:00FILE "04 - Lim Giong - A Chat.wav" WAVE TRACK 04 AUDIO TITLE "A Chat" PERFORMER "Lim Giong" INDEX 01 00:00:00FILE "05 - Lim Giong - A Moth Flies to the Fire.wav" WAVE TRACK 05 AUDIO TITLE "A Moth Flies to the Fire" PERFORMER "Lim Giong" INDEX 01 00:00:00FILE "06 - Moby - Why Does My Heart Feel So Bad (Katcha Remix).wav" WAVE TRACK 06 AUDIO TITLE "Why Does My Heart Feel So Bad? (Katcha Remix)" PERFORMER "Moby" INDEX 01 00:00:00FILE "07 - G Force - A New Day.wav" WAVE TRACK 07 AUDIO TITLE "A New Day" PERFORMER "G Force" INDEX 01 00:00:00FILE "08 - DJ Finorski - The Techno Wave Is Back.wav" WAVE TRACK 08 AUDIO TITLE "The Techno Wave Is Back" PERFORMER "DJ Finorski" INDEX 01 00:00:00FILE "09 - Dawn Tallman - Be Encouraged.wav" WAVE TRACK 09 AUDIO TITLE "Be Encouraged" PERFORMER "Dawn Tallman" INDEX 01 00:00:00FILE "10 - Lim Giong - Lighting Road.wav" WAVE TRACK 10 AUDIO TITLE "Lighting Road" PERFORMER "Lim Giong" INDEX 01 00:00:00
[teatrix.ru].t12591.torrent 
Торрент: Зарегистрирован [ 2016-01-05 16:15 ] · B8E2C3735822294F3DDADA68C125F3A16730CA9E

Скачать .torrent

Скачать

15 KB

Статус: проверено
Скачан: 2 раз
Размер: 337 MB
terms.php



Быстрый ответ

Имя:

      
Для отправки сообщений необходимо включить JavaScript
Показать сообщения:    

Текущее время: 09-Дек 08:45

Часовой пояс: UTC + 3


Вы можете начинать темы
Вы можете отвечать на сообщения
Вы не можете редактировать свои сообщения
Вы не можете удалять свои сообщения
Вы не можете голосовать в опросах
Вы не можете прикреплять файлы к сообщениям
Вы можете скачивать файлы