Новогодний концерт Венского филармонического оркестра 2016 (Марисс Янсонс) / Neujahrskonzert der Wiener Philarmoniker 2016 (New Year's Concert 2016) (Mariss Jansons) [2016, Classical, HDTV 720p]


 

[Цитировать]

Новогодний концерт Венского филармонического оркестра 2016 / Neujahrskonzert der Wiener Philarmoniker 2016 (New Year's Concert 2016)
Год выпуска: 2016
Жанр: Classical
Продолжительность: 00:22:56 + 00:36:59 + 01:35:20
Язык: Немецкий
Перевод: Нет
Субтитры: Нет
Дирижёр: Mariss Jansons
Исполнители: Wiener Philharmoniker, Wiener Sängerknaben, Wiener Staatsbalett
Описание: Новогодний концерт в Вене (нем. Das Neujahrskonzert der Wiener Philharmoniker) — традиционный ежегодный концерт Венского филармонического оркестра 1 января в столице Австрии. Концерты, которые Венский филармонический оркестр дает ежегодно, по праву считаются одним из крупнейших мировых музыкальных событий года. К этому концерту знаменитый симфонический оркестр долго готовится: приглашает крупнейших дирижеров, подбирает репертуар, в который по традиции неизменно включаются произведения знаменитых венских композиторов из семьи Штраусов. Первый Новогодний концерт в здании Венского общества друзей музыки состоялся 31 декабря 1939 года, однако свое официальное название «Новогодний концерт» он получил лишь в 1946 году.

Треклист

Intermission
Wolfgang A. Mozart - Klarinettenguintett A-Dur, KV 581
Tobi Reiser -Maxlaner Reloaded
Franz & Karl Doopler -Rigoletto -Fantasie
Gioacchino Rossini -Medley
Antonio Caldara- Sinfonia in C-Dur
Wolfgang A. Mozart - Die Zauberflote, KV 620
Wolfgang A. Mozart - Don Giovanni, KV 527
Concert
Robert Stolz
Uno-Marsch
Johann Strauss, Jr.
Schatz-Walzer. op. 418
Violetta. Polka francaise, op. 404
Vergnügungszug. Polka (schnell), op. 281
Carl Michael Ziehrer
Weaner Madl'n. Walzer op. 388
Eduard Strauss
Mit Extrapost. Galopp, op. 259
-- Pause --
Johann Strauss, Jr.
Ouvertüre zu Eine Nacht in Venedig (Wiener Fassung)
Eduard Strauss
Ausser Rand und Band. Polka schnell, op. 168
Josef Strauss
Sphärenklänge. Walzer, op. 235
Johann Strauss, Jr.
Sängerslust. Polka francaise, op. 328
Josef Strauss
Auf Ferienreisen. Polka schnell, op. 133
Johann Strauss, Jr.
Fürstin Ninetta - Entr’acte zwischen 2. und 3. Akt
Èmile Waldteufel
Espana. Walzer, op. 236
Josef Hellmesberger sen.
Ball-Szene
Johann Strauss, sen.
Seufzer-Galopp, op. 9
Josef Strauss
Die Libelle. Polka mazur, op. 204
Johann Strauss, Jr.
Kaiser-Walzer, op. 437
Auf der Jagd. Polka schnell, op. 373
Качество видео: HDTV 720p - HDTVRip
Формат/Контейнер: TS
Видео кодек: H.264
Аудио кодек: AC3

Intermission Feature - Zauberhaftes Salzburg

Продолжительность: 00:22:26
Видео поток: AVC, 1280x720 (16:9), 50.000 fps, 8 732 Kbps
Аудио поток: AC-3, 48.0 KHz, 6 ch, 448 Kbps

Mediainfo

GeneralID : 90 (0x5A)Complete name : M:\Vienna Philharmonic New Year's Concert 2016 - 720p DD5.1 Live\Intermission Feature - Zauberhaftes Salzburg.tsFormat : MPEG-TSFile size : 1.51 GiBDuration : 22mn 25sOverall bit rate mode : VariableOverall bit rate : 9 662 Kbps
VideoID : 144 (0x90)Menu ID : 9037 (0x234D)Format : AVCFormat/Info : Advanced Video CodecFormat profile : High@L3.2Format settings, CABAC : YesFormat settings, ReFrames : 2 framesCodec ID : 27Duration : 22mn 25sBit rate : 8 732 KbpsWidth : 1 280 pixelsHeight : 720 pixelsDisplay aspect ratio : 16:9Frame rate : 50.000 fpsStandard : ComponentColor space : YUVChroma subsampling : 4:2:0Bit depth : 8 bitsScan type : ProgressiveBits/(Pixel*Frame) : 0.189Stream size : 1.37 GiB (90%)Color range : Limited
AudioID : 155 (0x9B)Menu ID : 9037 (0x234D)Format : AC-3Format/Info : Audio Coding 3Mode extension : CM (complete main)Format settings, Endianness : BigCodec ID : 6Duration : 22mn 25sBit rate mode : ConstantBit rate : 448 KbpsChannel(s) : 6 channelsChannel positions : Front: L C R, Side: L R, LFESampling rate : 48.0 KHzCompression mode : LossyDelay relative to video : 55msStream size : 71.9 MiB (5%)Language : GermanLanguage, more info : Clean effects

Скриншоты


Vienna Philharmonic New Year's Concert 2016 Part1

Продолжительность: 00:36:59
Видео поток: AVC, 1280x720 (16:9), 50.000 fps, 8 780 Kbps
Аудио поток: AC-3, 48.0 KHz, 6 ch, 448 Kbps

Mediainfo

GeneralID : 90 (0x5A)Complete name : M:\Vienna Philharmonic New Year's Concert 2016 - 720p DD5.1 Live\Vienna Philharmonic New Year's Concert 2016 Part1.tsFormat : MPEG-TSFile size : 2.51 GiBDuration : 36mn 59sOverall bit rate mode : VariableOverall bit rate : 9 713 Kbps
VideoID : 144 (0x90)Menu ID : 9037 (0x234D)Format : AVCFormat/Info : Advanced Video CodecFormat profile : High@L3.2Format settings, CABAC : YesFormat settings, ReFrames : 2 framesCodec ID : 27Duration : 36mn 59sBit rate : 8 780 KbpsWidth : 1 280 pixelsHeight : 720 pixelsDisplay aspect ratio : 16:9Frame rate : 50.000 fpsStandard : ComponentColor space : YUVChroma subsampling : 4:2:0Bit depth : 8 bitsScan type : ProgressiveBits/(Pixel*Frame) : 0.191Stream size : 2.27 GiB (90%)Color range : Limited
AudioID : 155 (0x9B)Menu ID : 9037 (0x234D)Format : AC-3Format/Info : Audio Coding 3Mode extension : CM (complete main)Format settings, Endianness : BigCodec ID : 6Duration : 36mn 59sBit rate mode : ConstantBit rate : 448 KbpsChannel(s) : 6 channelsChannel positions : Front: L C R, Side: L R, LFESampling rate : 48.0 KHzCompression mode : LossyDelay relative to video : 55msStream size : 119 MiB (5%)Language : GermanLanguage, more info : Clean effects

Скриншоты


Vienna Philharmonic New Year's Concert 2016 Part2

Продолжительность: 01:35:20
Видео поток: AVC, 1280x720 (16:9), 50.000 fps, 8 779 Kbps
Аудио поток: AC-3, 48.0 KHz, 6 ch, 448 Kbps

Mediainfo

GeneralID : 90 (0x5A)Complete name : M:\Vienna Philharmonic New Year's Concert 2016 - 720p DD5.1 Live\Vienna Philharmonic New Year's Concert 2016 Part2.tsFormat : MPEG-TSFile size : 6.47 GiBDuration : 1h 35mnOverall bit rate mode : VariableOverall bit rate : 9 711 Kbps
VideoID : 144 (0x90)Menu ID : 9037 (0x234D)Format : AVCFormat/Info : Advanced Video CodecFormat profile : High@L3.2Format settings, CABAC : YesFormat settings, ReFrames : 2 framesCodec ID : 27Duration : 1h 35mnBit rate : 8 779 KbpsWidth : 1 280 pixelsHeight : 720 pixelsDisplay aspect ratio : 16:9Frame rate : 50.000 fpsStandard : ComponentColor space : YUVChroma subsampling : 4:2:0Bit depth : 8 bitsScan type : ProgressiveBits/(Pixel*Frame) : 0.191Stream size : 5.85 GiB (90%)Color range : Limited
AudioID : 155 (0x9B)Menu ID : 9037 (0x234D)Format : AC-3Format/Info : Audio Coding 3Mode extension : CM (complete main)Format settings, Endianness : BigCodec ID : 6Duration : 1h 35mnBit rate mode : ConstantBit rate : 448 KbpsChannel(s) : 6 channelsChannel positions : Front: L C R, Side: L R, LFESampling rate : 48.0 KHzCompression mode : LossyDelay relative to video : 119msStream size : 306 MiB (5%)Language : GermanLanguage, more info : Clean effects



Показать сообщения:    

Текущее время: 20-Янв 15:01

Часовой пояс: UTC + 3


Вы не можете начинать темы
Вы не можете отвечать на сообщения
Вы не можете редактировать свои сообщения
Вы не можете удалять свои сообщения
Вы не можете голосовать в опросах
Вы не можете прикреплять файлы к сообщениям
Вы не можете скачивать файлы