Одержимость / Whiplash (Дэмьен Шазелл / Damien Chazelle) [2014, США, Драма, музыка, DVD5 (сжатый)] исх. R5, MVO + Sub Rus + Original Eng


Статистика раздачи [Обновить пиров]
Размер:  4.37 GB   |    Зарегистрирован:  11 месяцев 4 дня   |    Скачан:  0 раз
Сидов:  7  [  0 KB/s  ]   Подробная статистика пиров
 
   
 
 

[Цитировать]

Одержимость / Whiplash«The road to greatness can take you to the edge»- Страна: США
Студии: Blumhouse Productions, Bold Films, Right of Way Films
Жанр: Драма, музыка
Год выпуска: 2014-Дата мировой премьеры: 16 января 2014
Дата российской премьеры: 23 октября 2014, «Премиум Фильм»
Дата выхода DVD релиза: 26 февраля 2015, «CP Дистрибуция»-Продолжительность: 01:42:13
Перевод: Профессиональный (многоголосый закадровый)
Cубтитры: Русские
Оригинальная аудиодорожка: английская-Режиссер: Дэмьен Шазелл / Damien Chazelle
Продюсеры: Джейсон Блум, Хелен Эстабрук, Дэвид Ланкастер
Актеры: Майлз Теллер, Дж.К. Симмонс, Пол Райзер, Мелисса Бенойст, Остин Стоуэлл, Нат Лэнг, Крис Малки, Дэймон Гаптон, Сюанн Споук, Макс Кэш-Описание:
Эндрю мечтает стать великим. Казалось бы, вот-вот его мечта осуществится. Юношу замечает настоящий гений, дирижер лучшего в стране оркестра. Желание Эндрю добиться успеха быстро становится одержимостью, а безжалостный наставник продолжает подталкивать его все дальше и дальше — за пределы человеческих возможностей. Кто выйдет победителем из этой схватки?-Бонусы: Создатели и исполнители- -Качество: DVD5 (сжатый)
Формат: DVD-Video
Видео: MPEG-2, 720x576@1024x576 (PAL 16:9), ~5300 Кбит/сек
Аудио 1: AC3 5.1, 448 Кбит/сек [Русский - многоголосый закадровый]
Аудио 2: AC3 5.1, 448 Кбит/сек [Английский - оригинал]

DVDInfo

Title: Whiplash (2014) DVD5
Size: 4.37 Gb ( 4 580 304,00 KBytes ) - DVD-5
Enabled regions: 1, 2, 3, 4, 5, 6, 7, 8
VTS_01 :
Play Length: 00:00:00
Video: PAL 4:3 (720x576) VBR
Audio:
Not specified (Dolby AC3, 2 ch)
Not specified (Dolby AC3, 2 ch)
Not specified (Dolby AC3, 2 ch)
Subtitles:
Not specified
Not specified
VTS_02 :
Play Length: 01:42:13
Video: PAL 16:9 (720x576) VBR, Auto Letterboxed
Audio:
Russian (Dolby AC3, 6 ch)
English (Dolby AC3, 6 ch)
Subtitles:
Russian
* Menus Information *
VIDEO_TS Menu
Video:
NTSC 4:3 (720x480) VBR
Auto Pan&Scan, Auto Letterboxed
English Language Unit :
Title Menu
VTS_01 Menu
Video:
PAL 16:9 (720x576) VBR
Auto Letterboxed
English Language Unit :
Root Menu
VTS_02 Menu
Video:
PAL 4:3 (720x576) VBR
English Language Unit :
Root Menu
Chapter (PTT) Menu

MediaInfo

Общее
Полное имя : G:\Видео\Whiplash (2014) DVD5\VIDEO_TS\VTS_02_3.VOB
Формат : MPEG-PS
Размер файла : 1024 Мбайт
Продолжительность : 22 м.
Режим общего битрейта : Переменный
Общий поток : 6340 Кбит/сек
Видео
Идентификатор : 224 (0xE0)
Формат : MPEG Video
Версия формата : Version 2
Профиль формата : Main@Main
Параметр BVOP формата : Да
Параметр матрицы формата : Выборочная
Параметр GOP формата : Variable
Продолжительность : 22 м.
Вид битрейта : Переменный
Битрейт : 5318 Кбит/сек
Максимальный битрейт : 8079 Кбит/сек
Ширина : 720 пикселей
Высота : 576 пикселей
Соотношение сторон : 16:9
Частота кадров : 25,000 кадров/сек
Стандарт вещания : PAL
Цветовое пространство : YUV
Субдискретизация насыщенности : 4:2:0
Битовая глубина : 8 бит
Тип развёртки : Прогрессивная
Порядок развёртки : Нижнее поле первое
Метод сжатия : С потерями
Бит/(Пиксели*Кадры) : 0.513
Временной код первого кадра : 00:47:11:04
Оригинал временного кода : Group of pictures header
GOP, открыто/закрыто : Открыто
Размер потока : 859 Мбайт (84%)
Аудио #1
Идентификатор : 189 (0xBD)-128 (0x80)
Формат : AC-3
Формат/Информация : Audio Coding 3
Расширение режима : CM (complete main)
Параметр Endianness формата : Big
Режим смешивания : DVD-Video
Продолжительность : 22 м.
Вид битрейта : Постоянный
Битрейт : 448 Кбит/сек
Каналы : 6 каналов
Расположение каналов : Front: L C R, Side: L R, LFE
Частота : 48,0 КГц
Битовая глубина : 16 бит
Метод сжатия : С потерями
Задержка видео : -520 мс.
Размер потока : 72,4 Мбайт (7%)
Аудио #2
Идентификатор : 189 (0xBD)-129 (0x81)
Формат : AC-3
Формат/Информация : Audio Coding 3
Расширение режима : CM (complete main)
Параметр Endianness формата : Big
Режим смешивания : DVD-Video
Продолжительность : 22 м.
Вид битрейта : Постоянный
Битрейт : 448 Кбит/сек
Каналы : 6 каналов
Расположение каналов : Front: L C R, Side: L R, LFE
Частота : 48,0 КГц
Битовая глубина : 16 бит
Метод сжатия : С потерями
Задержка видео : -552 мс.
Размер потока : 72,4 Мбайт (7%)
Текст
Идентификатор : 189 (0xBD)-32 (0x20)
Формат : RLE
Формат/Информация : Run-length encoding
Режим смешивания : DVD-Video
Продолжительность : 22 м.
Задержка видео : 5 с. 960 мс.
Меню

Доп. информация

Исходник: http://teatrix.ru/viewtopic.php?t=7177
Удалены: часть бонусов, предупреждающая надпись (в меню кнопки затёрты).
Команды диска переписаны заново, оставлено два VTS.
Видео сжато на 18,3%
Меню: статичное, недействующие кнопки затерты и закрыты.
Обработка и сжатие: DVD ReMake Pro + DVD Rebuilder + CCE SP2 [7 проходов] + Работа с меню (Adobe PhotoShop и MuxMan).
Скриншот финального проекта:

Лог кодирования DVD Rebuilder

-----------------
[17:12:00] Phase I, PREPARATION started.
- DVD-RB v1.28.2
- AVISYNTH 2.6.0.6
- CCE 1.0.1.9 encoder selected.
- "Adaptive Quantizer Matrices" is enabled.
- Source: WHIPLASH (2014) DVD5
- VTS_02: 2 667 354 sectors.
-- Scanning and writing .D2V & .AVS files
-- Processed 153 335 frames.
-- Building .AVS and .ECL files
- Reduction Level for DVD-5: 81,7%
- Overall Bitrate : 5 044Kbs
- Space for Video : 3 776 736KB
- Analyzing VTS_02 for optimal Q factor.
-- TargetSize (sectors):1 916 691
-- Sampling 1536 of 153335 frames.
-- Predicted size (sectors) at Q=20: 956 863
-- Predicted size (sectors) at Q=6: 1 643 993
-- Predicted size (sectors) at Q=4: 1 844 618
-- Predicted size (sectors) at Q=3: 1 955 517
- Q Value selected: 4
- Redistributing Final_Q: 4
- HIGH/LOW/TYPICAL Bitrates: 6 272/3 234/5 044 Kbs
[17:25:54] Phase I, PREPARATION completed in 13 minutes.
[17:27:16] Phase II ENCODING started
- Creating M2V for VTS_02 segment 0
- Creating M2V for VTS_02 segment 1
- Creating M2V for VTS_02 segment 2
- Creating M2V for VTS_02 segment 3
- Creating M2V for VTS_02 segment 4
- Creating M2V for VTS_02 segment 5
- Creating M2V for VTS_02 segment 6
- Creating M2V for VTS_02 segment 7
- Creating M2V for VTS_02 segment 8
- Creating M2V for VTS_02 segment 9
- Creating M2V for VTS_02 segment 10
- Extracting Video for VTS_02 segment 11
[18:25:25] Phase II ENCODING completed in 58 minutes.
[18:25:41] Phase III, REBUILD started.
- Copying IFO, BUP, and unaltered files...
- Processing VTS_02
- Reading/processing TMAP table...
- Rebuilding seg 0 VOBID 1 CELLID 1
- Rebuilding seg 1 VOBID 1 CELLID 2
- Rebuilding seg 2 VOBID 1 CELLID 3
- Rebuilding seg 3 VOBID 1 CELLID 4
- Rebuilding seg 4 VOBID 1 CELLID 5
- Rebuilding seg 5 VOBID 1 CELLID 6
- Rebuilding seg 6 VOBID 1 CELLID 7
- Rebuilding seg 7 VOBID 1 CELLID 8
- Rebuilding seg 8 VOBID 1 CELLID 9
- Rebuilding seg 9 VOBID 1 CELLID 10
- Rebuilding seg 10 VOBID 1 CELLID 11
- Rebuilding seg 11 VOBID 1 CELLID 12
- Updating NAVPACKS for VOBID_01
- Updated VTS_C_ADT.
- Updated VTS_VOBU_ADMAP.
- Updated IFO: VTS_02_0.IFO
- Updating TMAP table...
- Correcting VTS Sectors...
[18:36:34] Phase III, REBUILD completed in 11 minutes.
Done.

-

Скриншоты меню

Скриншоты фильма

[teatrix.ru].t12597.torrent 
Торрент: Зарегистрирован [ 2016-01-06 17:25 ] · 98C26F09742E32975ADD6231701303AB96A9F001

Скачать .torrent

Скачать

23 KB

Статус: проверено
Скачан: 0 раз
Размер: 4.37 GB
terms.php



Быстрый ответ

Имя:

      
Для отправки сообщений необходимо включить JavaScript
Показать сообщения:    

Текущее время: 11-Дек 05:19

Часовой пояс: UTC + 3


Вы можете начинать темы
Вы можете отвечать на сообщения
Вы не можете редактировать свои сообщения
Вы не можете удалять свои сообщения
Вы не можете голосовать в опросах
Вы не можете прикреплять файлы к сообщениям
Вы можете скачивать файлы