Вадим Юсов. Год и вся жизнь (Андрей Кияница) [Россия, 2014, Документальный, DVB-AVC]


Статистика раздачи [Обновить пиров]
Размер:  677 MB   |    Зарегистрирован:  10 месяцев 28 дней   |    Скачан:  0 раз
Сидов:  1  [  0 KB/s  ]   Подробная статистика пиров
 
   
 
 
 

[Цитировать]

Вадим Юсов. Год и вся жизнь
Год выпуска: 2014
Страна: Россия
Студия: ТРК "Плеяда"
Жанр: Документальный
Продолжительность: 00:39:01
Перевод: Не требуется
Режиссер: Андрей Кияница
Описание:
Фильм о выдающемся кинооператоре Вадиме Ивановиче Юсове.
"Профессия кинооператора, которой я занимаюсь уже много лет, всё еще остается для меня загадкой. И, думается, останется. Кажется, что всё уже перепробовал, всё снимал: масштабные баталии, скромные лирические сюжеты, реконструкцию истории, вольный полет фантастики, жизнерадостные комедии, и перекалённую страстями атмосферу трагедии. И каждый раз приходится подходить к профессии по-иному, выискивать в ней всё новые резервы, пригодные для решения задач, с которыми ещё не доводилось сталкиваться. Это, видимо, свойство любой профессии. Но вот какая особенность есть в нашем деле: накопленный опыт, конечно, помогает, а иногда может и помешать. Если, приступая к съёмкам, сознаёшь, что всё уже тебе знакомо, если для любой задачи находишь ответ в прошлом, значит, от чего-то надо отказываться—или от съёмок, или от прежних решений."
Это строчки из интервью выдающегося кинооператора Вадима Ивановича Юсова, по поводу вручения ему в Польше на ХХ Международном фестивале искусства кинооператоров премии, которая называлась так: "За достижения всей жизни". Он не любил общаться с журналистами, был скуп на интервью. Но о профессии мог говорить часами. За тридцать лет его профессорства во ВГИКе сменилось много студентов, в кино произошла техническая революция, но он не изменил свои убеждения. На вопрос одного из ребят, зачем учиться снимать батальные сцены, когда всё может сделать компьютер, Юсов отвечал: "Вы должны это уметь, а я могу вас этому научить. Пользуйтесь случаем, а компьютер будет всегда..." Его уход стал потрясением для друзей, коллег и студентов. Хотя возраст был весьма почтенный, он до последнего дня работал с молодёжью, чтобы передать всё, что знал, научить тому, что сам когда-то получил от великих мастеров советского кинематографа. Эту его бескорыстность все знали, многие ею пользовались. Его любили, им восхищались. Фильм рассказывает о Вадиме Юсове, каким он остался в памяти близких людей, друзей, коллег, учеников - современников.
Доп. информация:
Запись потока *.ts с наземного цифрового телеканала "Беларусь 3", ремукс в *.mkv программой VideoReDo.
Качество видео: DVB-AVC
Формат видео: MKV
Видео кодек: H.264
Аудио кодек: MP2
Видео: MPEG4 Video (H264) 720x576 (49:36) 25fps, 2 121 Kbps
Аудио: MP2, 256 kbps, 2 channels, 48 kHz
Сэмпл: http://sendfile.su/1190360

MediaInfo

GeneralUnique ID : 129128939513803848874315279397862438567 (0x61255441D767209934CA9771BAFEF6A7)Complete name : D:\Новая земля 2\001 Документальный фильмы\Личности\Вадим Юсов. Год и вся жизнь (2014)\Вадим Юсов. Год и вся жизнь (2014).mkvFormat : MatroskaFormat version : Version 2File size : 677 MiBDuration : 39mn 1sOverall bit rate : 2 425 KbpsWriting application : Lavf52.64.2Writing library : Lavf52.64.2
VideoID : 1Format : AVCFormat/Info : Advanced Video CodecFormat profile : Main@L3.0Format settings, CABAC : YesFormat settings, ReFrames : 4 framesFormat settings, GOP : M=4, N=24Codec ID : V_MPEG4/ISO/AVCDuration : 39mn 1sBit rate : 2 121 KbpsWidth : 720 pixelsHeight : 576 pixelsDisplay aspect ratio : 4:3Original display aspect ratio : 4:3Frame rate mode : ConstantFrame rate : 25.000 fpsStandard : PALColor space : YUVChroma subsampling : 4:2:0Bit depth : 8 bitsScan type : MBAFFScan order : Top Field FirstBits/(Pixel*Frame) : 0.205Stream size : 592 MiB (87%)Default : YesForced : NoColor primaries : BT.601 PALTransfer characteristics : BT.470 System B, BT.470 System GMatrix coefficients : BT.601Color range : Limited
AudioID : 2Format : MPEG AudioFormat version : Version 1Format profile : Layer 2Codec ID : A_MPEG/L2Codec ID/Hint : MP2Duration : 39mn 1sBit rate mode : ConstantBit rate : 256 KbpsChannel(s) : 2 channelsSampling rate : 48.0 KHzCompression mode : LossyStream size : 71.5 MiB (11%)Language : EnglishDefault : YesForced : No
[teatrix.ru].t12598.torrent 
Торрент: Зарегистрирован [ 2016-01-06 17:25 ] · 9D7A35140EC6F51D7B2581BF4971CFCF6EC20306

Скачать .torrent

Скачать

14 KB

Статус: проверено
Скачан: 0 раз
Размер: 677 MB
terms.php



Показать сообщения:    

Текущее время: 04-Дек 02:54

Часовой пояс: UTC + 3


Вы не можете начинать темы
Вы не можете отвечать на сообщения
Вы не можете редактировать свои сообщения
Вы не можете удалять свои сообщения
Вы не можете голосовать в опросах
Вы не можете прикреплять файлы к сообщениям
Вы можете скачивать файлы