(Classical) Ludwig van Beethoven — Piano Sonatas № 14, 8 & 23 (Op 27/2, 13 & 57) (Daniel Barenboim) — 1987, APE (image+.cue) lossless


 

[Цитировать]

Piano Sonatas № 14, 8 & 23 (Op 27/2, 13 & 57-
Жанр: Classical
Страна-производитель диска: Германия
Издатель (лейбл): Deutsche Grammophon
Номер по каталогу: 0289 419 602-2
Год издания диска: January, 02, 1987
Годы записи фонограмм: May, 1981; December, 1983
Композитор: Ludwig van Beethoven
Исполнитель: Daniel Barenboim
Аудио кодек: ape
Тип рипа: image+.cue
Битрейт аудио: lossless
Продолжительность: 01h02'56"
Источник: web
Наличие сканов в содержимом раздачи: нет-Треклист:
(01-03) Piano Sonata № 14 cis-moll Op 27/2 «Moonlight» [16'39"]
(04-06) Piano Sonata № 8 c-moll Op 13 «Pathetique» [19'50"]
(07-09) Piano Sonata № 23 f-moll Op 57 «Appassionata» [26'27"]
-

CUE

REM GENRE "Classical"
REM DATE "1987"
PERFORMER "Beethoven"
TITLE "Piano Sonatas № 14, 8 & 23"
FILE "Piano Sonatas № 14, 8 & 23.ape" WAVE
  TRACK 01 AUDIO
    TITLE "Piano Sonata № 14 cis-moll Op 27/2 «Moonlight» – I. Adagio sostenuto – attacca"
    PERFORMER "Beethoven"
    INDEX 01 00:00:00
  TRACK 02 AUDIO
    TITLE "Piano Sonata № 14 cis-moll Op 27/2 «Moonlight» – II. Allegretto - attacca"
    PERFORMER "Beethoven"
    INDEX 01 06:37:57
  TRACK 03 AUDIO
    TITLE "Piano Sonata № 14 cis-moll Op 27/2 «Moonlight» – III. Presto agitato"
    PERFORMER "Beethoven"
    INDEX 01 08:50:35
  TRACK 04 AUDIO
    TITLE "Piano Sonata № 8 c-moll Op 13 «Pathetique» – I. Grave – Allegro di molto e con brio"
    PERFORMER "Beethoven"
    INDEX 01 16:38:67
  TRACK 05 AUDIO
    TITLE "Piano Sonata № 8 c-moll Op 13 «Pathetique» – II. Adagio cantabile"
    PERFORMER "Beethoven"
    INDEX 01 26:11:00
  TRACK 06 AUDIO
    TITLE "Piano Sonata № 8 c-moll Op 13 «Pathetique» – III. Rondo. Allegro"
    PERFORMER "Beethoven"
    INDEX 01 31:36:10
  TRACK 07 AUDIO
    TITLE "Piano Sonata № 23 f-moll Op 57 «Appassionata» – I. Allegro assai"
    PERFORMER "Beethoven"
    INDEX 01 36:28:70
  TRACK 08 AUDIO
    TITLE "Piano Sonata № 23 f-moll Op 57 «Appassionata» – II. Andante con molto – attacca"
    PERFORMER "Beethoven"
    INDEX 01 47:07:07
  TRACK 09 AUDIO
    TITLE "Piano Sonata № 23 f-moll Op 57 «Appassionata» – III. Allegro, ma non troppo – Presto"
    PERFORMER "Beethoven"
    INDEX 01 54:42:02

-

auCDtect log

-----------------------
DON'T MODIFY THIS FILE
-----------------------
PERFORMER: auCDtect Task Manager, ver. 1.5.1RC4 build 1.5.1.5
Copyright (c) 2008-2010 y-soft. All rights reserved
http://y-soft.org
ANALYZER: auCDtect: CD records authenticity detector, version 0.8.2
Copyright (c) 2004 Oleg Berngardt. All rights reserved.
Copyright (c) 2004 Alexander Djourik. All rights reserved.
FILE: Piano Sonatas № 14, 8 & 23.wav
  Size: 666086444 Hash: B149FB19E6B1E33B29CEAE3CFC090B59 Accuracy: -m0
  Conclusion: CDDA 100%
  Signature: 5C71C59C9AAB2CD03CE60E26703DC9F4EA8CA36F

-

Spectrogram

-



Показать сообщения:    

Текущее время: 03-Дек 07:41

Часовой пояс: UTC + 3


Вы не можете начинать темы
Вы не можете отвечать на сообщения
Вы не можете редактировать свои сообщения
Вы не можете удалять свои сообщения
Вы не можете голосовать в опросах
Вы не можете прикреплять файлы к сообщениям
Вы не можете скачивать файлы