(organ) Felipe Gorriti (1839-1896) - Organ Works Vol. 1 - Esteban Elizondo Iriarte - 2005, FLAC (tracks+.cue) lossless


 

[Цитировать]

Felipe Gorriti (1839-1896) - Organ Works Vol. 1 - Esteban Elizondo Iriarte
Жанр: organ
Страна-производитель диска: EU
Год издания диска: 2005
Издатель (лейбл): Aeolus
Номер по каталогу: AE-10521
Дата записи: 20,21 & 22.08.2004
Аудиокодек: FLAC
Тип рипа: tracks+.cue
Битрейт аудио: lossless
Продолжительность: 01:07:28
Источник: релизер
сайт-источник/ник/другое: hixius
Наличие сканов в содержимом раздачи: да
Треклист:
Salmodia Orgánica del genero
libre para Primeras Clases (extractos)
Primer Tono
01. Verso 1 - Allegro [01:36]
02. Verso 2 - Andantino [01:40]
03. Verso 3 - Moderato mosso [01:18]
04. Verso 4 - Allegro moderato [01:33]
Segundo Tono
05. Verso 1 - Allegretto [01:43]
06. Verso 2 - Allegro [01:32]
07. Verso 3 - Andante [01:53]
08. Verso 4 - Allegro non Molto [01:28]
Tercer Tono
09. Verso 1 - Allegro [01:27]
10. Verso 2 - Moderato [00:58]
11. Verso 3 - Andante movido [01:56]
12. Verso 4 - Allegro [01:37]
Cuarto Tono
13. Verso 1 - Allegro Moderato [01:43]
14. Verso 2 - Allegretto [01:12]
15. Verso 3 - Maestoso [01:25]
16. Verso 4 - Moderato [01:36]
Quinto Tono
17. Verso 1 - Allegro non molto [01:12]
18. Verso 2 - Andante [01:29]
19. Verso 3 - Moderato [01:32]
Sexto Tono
20. Verso 1 - Moderato [01:13]
21. Verso 2 - Allegro [00:56]
22. Verso 3 - Andantino [01:39]
23. Verso 4 - Moderato [01:24]
Séptimo Tono
24. Verso 1 - Allegro Moderato [01:04]
25. Verso 2 - Allegretto [01:01]
26. Verso 3 - Andantino [01:32]
27. Verso 4 - Allegro non molto [01:20]
Octavo Tono
28. Verso 1 - Allegro assai [01:28]
29. Verso 2 - Allegro mosso [01:56]
30. Verso 3 - Allegro [01:53]
31. Elevación y Plegaria en si bemol mayor [04:17]
32. Elevación en sol menor y Plegaria en sol mayor [04:38]
33. Elevación en fa menor y Plegaria en fa mayor [04:50]
34. Sonata para órgano en re mayor (Allegro) [04:08]
35. Sonata para órgano en fa mayor (Allegro) [05:19]-Исполнители:
Esteban Elizondo Iriarte
Organo de la Iglesia Santo Domingo, Pamplona-

Лог создания рипа

Exact Audio Copy V1.0 beta 3 from 29. August 2011
EAC extraction logfile from 6. September 2014, 20:49
Felipe Gorriti / Organ works Vol. 1
Used drive : HL-DT-STDVDRAM GH24NSB0 Adapter: 5 ID: 0
Read mode : SecureUtilize accurate stream : YesDefeat audio cache : YesMake use of C2 pointers : No
Read offset correction : 6Overread into Lead-In and Lead-Out : NoFill up missing offset samples with silence : YesDelete leading and trailing silent blocks : NoNull samples used in CRC calculations : YesUsed interface : Native Win32 interface for Win NT & 2000Gap handling : Appended to previous track
Used output format : User Defined EncoderSelected bitrate : 1024 kBit/sQuality : HighAdd ID3 tag : NoCommand line compressor : C:\Program Files (x86)\Exact Audio Copy\Flac\flac.exeAdditional command line options : -8 -V -T "ARTIST=%artist%" -T "TITLE=%title%" -T "ALBUM=%albumtitle%" -T "DATE=%year%" -T "TRACKNUMBER=%tracknr%" -T "TOTALTRACKS=%numtracks%" -T "GENRE=%genre%" -T "ALBUMARTIST=%albumartist%" -T "ALBUM ARTIST=%albumartist%" -T "COMMENT=EAC Secure Mode, Test & Copy, AccurateRip, FLAC -8" %source%
TOC of the extracted CD
Track | Start | Length | Start sector | End sector --------------------------------------------------------- 1 | 0:00.00 | 1:36.16 | 0 | 7215 2 | 1:36.16 | 1:40.04 | 7216 | 14719 3 | 3:16.20 | 1:18.64 | 14720 | 20633 4 | 4:35.09 | 1:33.29 | 20634 | 27637 5 | 6:08.38 | 1:43.11 | 27638 | 35373 6 | 7:51.49 | 1:32.59 | 35374 | 42332 7 | 9:24.33 | 1:53.27 | 42333 | 50834 8 | 11:17.60 | 1:28.67 | 50835 | 57501 9 | 12:46.52 | 1:27.34 | 57502 | 64060 10 | 14:14.11 | 0:58.66 | 64061 | 68476 11 | 15:13.02 | 1:56.19 | 68477 | 77195 12 | 17:09.21 | 1:37.25 | 77196 | 84495 13 | 18:46.46 | 1:43.68 | 84496 | 92288 14 | 20:30.39 | 1:12.19 | 92289 | 97707 15 | 21:42.58 | 1:25.65 | 97708 | 104147 16 | 23:08.48 | 1:36.55 | 104148 | 111402 17 | 24:45.28 | 1:12.64 | 111403 | 116866 18 | 25:58.17 | 1:29.04 | 116867 | 123545 19 | 27:27.21 | 1:32.40 | 123546 | 130485 20 | 28:59.61 | 1:13.44 | 130486 | 136004 21 | 30:13.30 | 0:56.50 | 136005 | 140254 22 | 31:10.05 | 1:39.44 | 140255 | 147723 23 | 32:49.49 | 1:24.31 | 147724 | 154054 24 | 34:14.05 | 1:04.71 | 154055 | 158925 25 | 35:19.01 | 1:01.19 | 158926 | 163519 26 | 36:20.20 | 1:32.40 | 163520 | 170459 27 | 37:52.60 | 1:20.33 | 170460 | 176492 28 | 39:13.18 | 1:28.21 | 176493 | 183113 29 | 40:41.39 | 1:56.25 | 183114 | 191838 30 | 42:37.64 | 1:53.25 | 191839 | 200338 31 | 44:31.14 | 4:17.26 | 200339 | 219639 32 | 48:48.40 | 4:38.15 | 219640 | 240504 33 | 53:26.55 | 4:50.42 | 240505 | 262296 34 | 58:17.22 | 4:08.06 | 262297 | 280902 35 | 62:25.28 | 5:19.49 | 280903 | 304876
Track 1
Filename C:\EAC\01 - Salmodia Organica - Primer Tono - Verso 1 - Allegro.wav
Pre-gap length 0:00:02.00
Peak level 66.4 % Extraction speed 0.8 X Track quality 100.0 % Test CRC 48AA789B Copy CRC 48AA789B Accurately ripped (confidence 1) [C7231994] (AR v2) Copy OK
Track 2
Filename C:\EAC\02 - Salmodia Organica - Primer Tono - Verso 2 - Andantino.wav
Peak level 22.8 % Extraction speed 0.9 X Track quality 100.0 % Test CRC 525C0CDF Copy CRC 525C0CDF Accurately ripped (confidence 1) [F2FBA403] (AR v2) Copy OK
Track 3
Filename C:\EAC\03 - Salmodia Organica - Primer Tono - Verso 3 - Moderato mosso.wav
Peak level 43.1 % Extraction speed 0.9 X Track quality 100.0 % Test CRC D9568CAC Copy CRC D9568CAC Accurately ripped (confidence 1) [1087E5AB] (AR v2) Copy OK
Track 4
Filename C:\EAC\04 - Salmodia Organica - Primer Tono - Verso 4 - Allegro moderato.wav
Peak level 62.0 % Extraction speed 1.0 X Track quality 100.0 % Test CRC AC1C7E50 Copy CRC AC1C7E50 Accurately ripped (confidence 1) [CB73E804] (AR v2) Copy OK
Track 5
Filename C:\EAC\05 - Salmodia Organica - Segundo Tono - Verso 1 - Allegretto.wav
Peak level 8.9 % Extraction speed 1.0 X Track quality 100.0 % Test CRC 91BD0639 Copy CRC 91BD0639 Accurately ripped (confidence 1) [D750A9AE] (AR v2) Copy OK
Track 6
Filename C:\EAC\06 - Salmodia Organica - Segundo Tono - Verso 2 - Allegro.wav
Peak level 65.3 % Extraction speed 1.0 X Track quality 100.0 % Test CRC 05855B71 Copy CRC 05855B71 Accurately ripped (confidence 1) [24BCE732] (AR v2) Copy OK
Track 7
Filename C:\EAC\07 - Salmodia Organica - Segundo Tono - Verso 3 - Andante.wav
Peak level 13.0 % Extraction speed 1.1 X Track quality 100.0 % Test CRC 05289A36 Copy CRC 05289A36 Accurately ripped (confidence 1) [A07C73ED] (AR v2) Copy OK
Track 8
Filename C:\EAC\08 - Salmodia Organica - Segundo Tono - Verso 4 - Allegro non Molto.wav
Peak level 4.6 % Extraction speed 1.1 X Track quality 100.0 % Test CRC DAE2342A Copy CRC DAE2342A Accurately ripped (confidence 1) [974BB6B7] (AR v2) Copy OK
Track 9
Filename C:\EAC\09 - Salmodia Organica - Tercer Tono - Verso 1 - Allegro.wav
Peak level 51.1 % Extraction speed 1.1 X Track quality 100.0 % Test CRC DA0C7040 Copy CRC DA0C7040 Accurately ripped (confidence 1) [A06A9D9C] (AR v2) Copy OK
Track 10
Filename C:\EAC\10 - Salmodia Organica - Tercer Tono - Verso 2 - Moderato.wav
Peak level 49.3 % Extraction speed 1.0 X Track quality 100.0 % Test CRC 490D7415 Copy CRC 490D7415 Accurately ripped (confidence 1) [F80FF5D6] (AR v2) Copy OK
Track 11
Filename C:\EAC\11 - Salmodia Organica - Tercer Tono - Verso 3 - Andante movido.wav
Peak level 35.2 % Extraction speed 1.3 X Track quality 100.0 % Test CRC CE2846DD Copy CRC CE2846DD Accurately ripped (confidence 1) [F55AEFEA] (AR v2) Copy OK
Track 12
Filename C:\EAC\12 - Salmodia Organica - Tercer Tono - Verso 4 - Allegro.wav
Peak level 100.0 % Extraction speed 1.2 X Track quality 100.0 % Test CRC C1AAD40F Copy CRC C1AAD40F Accurately ripped (confidence 1) [747FDE4C] (AR v2) Copy OK
Track 13
Filename C:\EAC\13 - Salmodia Organica - Cuarto Tono - Verso 1 - Allegro Moderato.wav
Peak level 33.2 % Extraction speed 1.0 X Track quality 99.8 % Test CRC 7260E03E Copy CRC 7260E03E Accurately ripped (confidence 1) [0F7035C5] (AR v2) Copy OK
Track 14
Filename C:\EAC\14 - Salmodia Organica - Cuarto Tono - Verso 2 - Allegretto.wav
Peak level 36.4 % Extraction speed 1.2 X Track quality 100.0 % Test CRC A48B030D Copy CRC A48B030D Accurately ripped (confidence 1) [2FB2F103] (AR v2) Copy OK
Track 15
Filename C:\EAC\15 - Salmodia Organica - Cuarto Tono - Verso 3 - Maestoso.wav
Peak level 37.0 % Extraction speed 1.3 X Track quality 100.0 % Test CRC FEA4E7EC Copy CRC FEA4E7EC Accurately ripped (confidence 1) [3FE52821] (AR v2) Copy OK
Track 16
Filename C:\EAC\16 - Salmodia Organica - Cuarto Tono - Verso 4 - Moderato.wav
Peak level 46.8 % Extraction speed 1.4 X Track quality 100.0 % Test CRC 927463A6 Copy CRC 927463A6 Accurately ripped (confidence 1) [03112A84] (AR v2) Copy OK
Track 17
Filename C:\EAC\17 - Salmodia Organica - Quinto Tono - Verso 1 - Allegro non molto.wav
Peak level 5.6 % Extraction speed 1.3 X Track quality 100.0 % Test CRC A330B47A Copy CRC A330B47A Accurately ripped (confidence 1) [91B23CC4] (AR v2) Copy OK
Track 18
Filename C:\EAC\18 - Salmodia Organica - Quinto Tono - Verso 2 - Andante.wav
Peak level 20.5 % Extraction speed 1.4 X Track quality 100.0 % Test CRC 3A508FE3 Copy CRC 3A508FE3 Accurately ripped (confidence 1) [11C66C70] (AR v2) Copy OK
Track 19
Filename C:\EAC\19 - Salmodia Organica - Quinto Tono - Verso 3 - Moderato.wav
Peak level 15.2 % Extraction speed 1.4 X Track quality 100.0 % Test CRC 61065D5E Copy CRC 61065D5E Accurately ripped (confidence 1) [8FC17CD0] (AR v2) Copy OK
Track 20
Filename C:\EAC\20 - Salmodia Organica - Sexto Tono - Verso 1 - Moderato.wav
Peak level 39.0 % Extraction speed 1.3 X Track quality 100.0 % Test CRC 0E38E013 Copy CRC 0E38E013 Accurately ripped (confidence 1) [994A23A0] (AR v2) Copy OK
Track 21
Filename C:\EAC\21 - Salmodia Organica - Sexto Tono - Verso 2 - Allegro.wav
Peak level 9.9 % Extraction speed 1.2 X Track quality 100.0 % Test CRC 3D5389AF Copy CRC 3D5389AF Accurately ripped (confidence 1) [64E35E3B] (AR v2) Copy OK
Track 22
Filename C:\EAC\22 - Salmodia Organica - Sexto Tono - Verso 3 - Andantino.wav
Peak level 23.8 % Extraction speed 1.2 X Track quality 99.8 % Test CRC 96833C99 Copy CRC 96833C99 Accurately ripped (confidence 1) [94FE7636] (AR v2) Copy OK
Track 23
Filename C:\EAC\23 - Salmodia Organica - Sexto Tono - Verso 4 - Moderato.wav
Peak level 74.7 % Extraction speed 1.4 X Track quality 100.0 % Test CRC 305C1E67 Copy CRC 305C1E67 Accurately ripped (confidence 1) [CDD95A6D] (AR v2) Copy OK
Track 24
Filename C:\EAC\24 - Salmodia Organica - Septimo Tono - Verso 1 - Allegro Moderato.wav
Peak level 4.2 % Extraction speed 1.3 X Track quality 100.0 % Test CRC C87F96E4 Copy CRC C87F96E4 Accurately ripped (confidence 1) [99C79113] (AR v2) Copy OK
Track 25
Filename C:\EAC\25 - Salmodia Organica - Septimo Tono - Verso 2 - Allegretto.wav
Peak level 4.7 % Extraction speed 1.3 X Track quality 100.0 % Test CRC B0962276 Copy CRC B0962276 Accurately ripped (confidence 1) [DCB9A410] (AR v2) Copy OK
Track 26
Filename C:\EAC\26 - Salmodia Organica - Septimo Tono - Verso 3 - Andantino.wav
Peak level 21.9 % Extraction speed 1.5 X Track quality 100.0 % Test CRC 3114858C Copy CRC 3114858C Accurately ripped (confidence 1) [CAE66DE6] (AR v2) Copy OK
Track 27
Filename C:\EAC\27 - Salmodia Organica - Septimo Tono - Verso 4 - Allegro non molto.wav
Peak level 37.0 % Extraction speed 1.5 X Track quality 100.0 % Test CRC 42FD38A3 Copy CRC 42FD38A3 Accurately ripped (confidence 1) [74F9AAB4] (AR v2) Copy OK
Track 28
Filename C:\EAC\28 - Salmodia Organica - Octavo Tono - Verso 1 - Allegro assai.wav
Peak level 29.9 % Extraction speed 1.2 X Track quality 99.8 % Test CRC 7E01ADDA Copy CRC 7E01ADDA Accurately ripped (confidence 1) [E574E21E] (AR v2) Copy OK
Track 29
Filename C:\EAC\29 - Salmodia Organica - Octavo Tono - Verso 2 - Allegro mosso.wav
Peak level 11.2 % Extraction speed 1.7 X Track quality 100.0 % Test CRC 2E588CBD Copy CRC 2E588CBD Accurately ripped (confidence 1) [D58F653C] (AR v2) Copy OK
Track 30
Filename C:\EAC\30 - Salmodia Organica - Octavo Tono - Verso 3 - Allegro.wav
Peak level 94.5 % Extraction speed 1.7 X Track quality 100.0 % Test CRC 74CC84FC Copy CRC 74CC84FC Accurately ripped (confidence 1) [AC6178B4] (AR v2) Copy OK
Track 31
Filename C:\EAC\31 - Elevacion y Plegaria en si bemol mayor.wav
Pre-gap length 0:00:06.09
Peak level 39.0 % Extraction speed 2.1 X Track quality 100.0 % Test CRC A46ABD1D Copy CRC A46ABD1D Accurately ripped (confidence 1) [FABC135B] (AR v2) Copy OK
Track 32
Filename C:\EAC\32 - Elevacion en sol menor y Plegaria en sol mayor.wav
Peak level 34.4 % Extraction speed 1.9 X Track quality 99.9 % Test CRC 2A200A86 Copy CRC 2A200A86 Accurately ripped (confidence 1) [589297CF] (AR v2) Copy OK
Track 33
Filename C:\EAC\33 - Elevacion en fa menor y Plegaria en fa mayor.wav
Peak level 38.9 % Extraction speed 2.2 X Track quality 100.0 % Test CRC 386979B1 Copy CRC 386979B1 Accurately ripped (confidence 1) [DA747F35] (AR v2) Copy OK
Track 34
Filename C:\EAC\34 - Sonata para organo en re mayor (Allegro).wav
Pre-gap length 0:00:08.34
Peak level 44.4 % Extraction speed 2.3 X Track quality 100.0 % Test CRC 5F22AA07 Copy CRC 5F22AA07 Accurately ripped (confidence 1) [4F24AB6E] (AR v2) Copy OK
Track 35
Filename C:\EAC\35 - Sonata para organo en fa mayor (Allegro).wav
Peak level 39.6 % Extraction speed 2.4 X Track quality 100.0 % Test CRC 7591AB4F Copy CRC 7591AB4F Accurately ripped (confidence 1) [1431A5C7] (AR v2) Copy OK
All tracks accurately ripped
No errors occurred
End of status report
==== Log checksum F6319E753D585BFDD548E67153526AD4CB50FE9CDDC2472785A9BDD399D4C285 ====

Содержание индексной карты (.CUE)

REM GENRE ClassicalREM DATE 2005REM DISCID 0A0FE123REM COMMENT "ExactAudioCopy v1.0b3"PERFORMER "Felipe Gorriti"TITLE "Organ works Vol. 1"FILE "01 - Salmodia Organica - Primer Tono - Verso 1 - Allegro.wav" WAVE TRACK 01 AUDIO TITLE "Salmodia Organica - Primer Tono - Verso 1 - Allegro" PERFORMER "Felipe Gorriti" INDEX 01 00:00:00FILE "02 - Salmodia Organica - Primer Tono - Verso 2 - Andantino.wav" WAVE TRACK 02 AUDIO TITLE "Salmodia Organica - Primer Tono - Verso 2 - Andantino" PERFORMER "Felipe Gorriti" INDEX 01 00:00:00FILE "03 - Salmodia Organica - Primer Tono - Verso 3 - Moderato mosso.wav" WAVE TRACK 03 AUDIO TITLE "Salmodia Organica - Primer Tono - Verso 3 - Moderato mosso" PERFORMER "Felipe Gorriti" INDEX 01 00:00:00FILE "04 - Salmodia Organica - Primer Tono - Verso 4 - Allegro moderato.wav" WAVE TRACK 04 AUDIO TITLE "Salmodia Organica - Primer Tono - Verso 4 - Allegro moderato" PERFORMER "Felipe Gorriti" INDEX 01 00:00:00FILE "05 - Salmodia Organica - Segundo Tono - Verso 1 - Allegretto.wav" WAVE TRACK 05 AUDIO TITLE "Salmodia Organica - Segundo Tono - Verso 1 - Allegretto" PERFORMER "Felipe Gorriti" INDEX 01 00:00:00FILE "06 - Salmodia Organica - Segundo Tono - Verso 2 - Allegro.wav" WAVE TRACK 06 AUDIO TITLE "Salmodia Organica - Segundo Tono - Verso 2 - Allegro" PERFORMER "Felipe Gorriti" INDEX 01 00:00:00FILE "07 - Salmodia Organica - Segundo Tono - Verso 3 - Andante.wav" WAVE TRACK 07 AUDIO TITLE "Salmodia Organica - Segundo Tono - Verso 3 - Andante" PERFORMER "Felipe Gorriti" INDEX 01 00:00:00FILE "08 - Salmodia Organica - Segundo Tono - Verso 4 - Allegro non Molto.wav" WAVE TRACK 08 AUDIO TITLE "Salmodia Organica - Segundo Tono - Verso 4 - Allegro non Molto" PERFORMER "Felipe Gorriti" INDEX 01 00:00:00FILE "09 - Salmodia Organica - Tercer Tono - Verso 1 - Allegro.wav" WAVE TRACK 09 AUDIO TITLE "Salmodia Organica - Tercer Tono - Verso 1 - Allegro" PERFORMER "Felipe Gorriti" INDEX 01 00:00:00FILE "10 - Salmodia Organica - Tercer Tono - Verso 2 - Moderato.wav" WAVE TRACK 10 AUDIO TITLE "Salmodia Organica - Tercer Tono - Verso 2 - Moderato" PERFORMER "Felipe Gorriti" INDEX 01 00:00:00FILE "11 - Salmodia Organica - Tercer Tono - Verso 3 - Andante movido.wav" WAVE TRACK 11 AUDIO TITLE "Salmodia Organica - Tercer Tono - Verso 3 - Andante movido" PERFORMER "Felipe Gorriti" INDEX 01 00:00:00FILE "12 - Salmodia Organica - Tercer Tono - Verso 4 - Allegro.wav" WAVE TRACK 12 AUDIO TITLE "Salmodia Organica - Tercer Tono - Verso 4 - Allegro" PERFORMER "Felipe Gorriti" INDEX 01 00:00:00FILE "13 - Salmodia Organica - Cuarto Tono - Verso 1 - Allegro Moderato.wav" WAVE TRACK 13 AUDIO TITLE "Salmodia Organica - Cuarto Tono - Verso 1 - Allegro Moderato" PERFORMER "Felipe Gorriti" INDEX 01 00:00:00FILE "14 - Salmodia Organica - Cuarto Tono - Verso 2 - Allegretto.wav" WAVE TRACK 14 AUDIO TITLE "Salmodia Organica - Cuarto Tono - Verso 2 - Allegretto" PERFORMER "Felipe Gorriti" INDEX 01 00:00:00FILE "15 - Salmodia Organica - Cuarto Tono - Verso 3 - Maestoso.wav" WAVE TRACK 15 AUDIO TITLE "Salmodia Organica - Cuarto Tono - Verso 3 - Maestoso" PERFORMER "Felipe Gorriti" INDEX 01 00:00:00FILE "16 - Salmodia Organica - Cuarto Tono - Verso 4 - Moderato.wav" WAVE TRACK 16 AUDIO TITLE "Salmodia Organica - Cuarto Tono - Verso 4 - Moderato" PERFORMER "Felipe Gorriti" INDEX 01 00:00:00FILE "17 - Salmodia Organica - Quinto Tono - Verso 1 - Allegro non molto.wav" WAVE TRACK 17 AUDIO TITLE "Salmodia Organica - Quinto Tono - Verso 1 - Allegro non molto" PERFORMER "Felipe Gorriti" INDEX 01 00:00:00FILE "18 - Salmodia Organica - Quinto Tono - Verso 2 - Andante.wav" WAVE TRACK 18 AUDIO TITLE "Salmodia Organica - Quinto Tono - Verso 2 - Andante" PERFORMER "Felipe Gorriti" INDEX 01 00:00:00FILE "19 - Salmodia Organica - Quinto Tono - Verso 3 - Moderato.wav" WAVE TRACK 19 AUDIO TITLE "Salmodia Organica - Quinto Tono - Verso 3 - Moderato" PERFORMER "Felipe Gorriti" INDEX 01 00:00:00FILE "20 - Salmodia Organica - Sexto Tono - Verso 1 - Moderato.wav" WAVE TRACK 20 AUDIO TITLE "Salmodia Organica - Sexto Tono - Verso 1 - Moderato" PERFORMER "Felipe Gorriti" INDEX 01 00:00:00FILE "21 - Salmodia Organica - Sexto Tono - Verso 2 - Allegro.wav" WAVE TRACK 21 AUDIO TITLE "Salmodia Organica - Sexto Tono - Verso 2 - Allegro" PERFORMER "Felipe Gorriti" INDEX 01 00:00:00FILE "22 - Salmodia Organica - Sexto Tono - Verso 3 - Andantino.wav" WAVE TRACK 22 AUDIO TITLE "Salmodia Organica - Sexto Tono - Verso 3 - Andantino" PERFORMER "Felipe Gorriti" INDEX 01 00:00:00FILE "23 - Salmodia Organica - Sexto Tono - Verso 4 - Moderato.wav" WAVE TRACK 23 AUDIO TITLE "Salmodia Organica - Sexto Tono - Verso 4 - Moderato" PERFORMER "Felipe Gorriti" INDEX 01 00:00:00FILE "24 - Salmodia Organica - Septimo Tono - Verso 1 - Allegro Moderato.wav" WAVE TRACK 24 AUDIO TITLE "Salmodia Organica - Septimo Tono - Verso 1 - Allegro Moderato" PERFORMER "Felipe Gorriti" INDEX 01 00:00:00FILE "25 - Salmodia Organica - Septimo Tono - Verso 2 - Allegretto.wav" WAVE TRACK 25 AUDIO TITLE "Salmodia Organica - Septimo Tono - Verso 2 - Allegretto" PERFORMER "Felipe Gorriti" INDEX 01 00:00:00FILE "26 - Salmodia Organica - Septimo Tono - Verso 3 - Andantino.wav" WAVE TRACK 26 AUDIO TITLE "Salmodia Organica - Septimo Tono - Verso 3 - Andantino" PERFORMER "Felipe Gorriti" INDEX 01 00:00:00FILE "27 - Salmodia Organica - Septimo Tono - Verso 4 - Allegro non molto.wav" WAVE TRACK 27 AUDIO TITLE "Salmodia Organica - Septimo Tono - Verso 4 - Allegro non molto" PERFORMER "Felipe Gorriti" INDEX 01 00:00:00FILE "28 - Salmodia Organica - Octavo Tono - Verso 1 - Allegro assai.wav" WAVE TRACK 28 AUDIO TITLE "Salmodia Organica - Octavo Tono - Verso 1 - Allegro assai" PERFORMER "Felipe Gorriti" INDEX 01 00:00:00FILE "29 - Salmodia Organica - Octavo Tono - Verso 2 - Allegro mosso.wav" WAVE TRACK 29 AUDIO TITLE "Salmodia Organica - Octavo Tono - Verso 2 - Allegro mosso" PERFORMER "Felipe Gorriti" INDEX 01 00:00:00FILE "30 - Salmodia Organica - Octavo Tono - Verso 3 - Allegro.wav" WAVE TRACK 30 AUDIO TITLE "Salmodia Organica - Octavo Tono - Verso 3 - Allegro" PERFORMER "Felipe Gorriti" INDEX 01 00:00:00 TRACK 31 AUDIO TITLE "Elevacion y Plegaria en si bemol mayor" PERFORMER "Felipe Gorriti" INDEX 00 01:47:16FILE "31 - Elevacion y Plegaria en si bemol mayor.wav" WAVE INDEX 01 00:00:00FILE "32 - Elevacion en sol menor y Plegaria en sol mayor.wav" WAVE TRACK 32 AUDIO TITLE "Elevacion en sol menor y Plegaria en sol mayor" PERFORMER "Felipe Gorriti" INDEX 01 00:00:00FILE "33 - Elevacion en fa menor y Plegaria en fa mayor.wav" WAVE TRACK 33 AUDIO TITLE "Elevacion en fa menor y Plegaria en fa mayor" PERFORMER "Felipe Gorriti" INDEX 01 00:00:00 TRACK 34 AUDIO TITLE "Sonata para organo en re mayor (Allegro)" PERFORMER "Felipe Gorriti" INDEX 00 04:42:08FILE "34 - Sonata para organo en re mayor (Allegro).wav" WAVE INDEX 01 00:00:00FILE "35 - Sonata para organo en fa mayor (Allegro).wav" WAVE TRACK 35 AUDIO TITLE "Sonata para organo en fa mayor (Allegro)" PERFORMER "Felipe Gorriti" INDEX 01 00:00:00

Лог проверки качества

AUDIOCHECKER v2.0 beta (build 457) - by Dester - opdester@freemail.hu~~~~~~~~~~~~~~~~~~~~~~~~~~~~~~~~~~-=== DO NOT EDIT THIS FILE! ===-
Path: ...\Felipe Gorriti - Organ works Vol. 1 (2005) [FLAC] {Esteban Elizondo Iriarte, Aeolus - AE-10521}
01 -=- 01 - Salmodia Organica - Primer Tono - Verso 1 - Allegro.flac -=- CDDA (99%)02 -=- 02 - Salmodia Organica - Primer Tono - Verso 2 - Andantino.flac -=- CDDA (100%)03 -=- 03 - Salmodia Organica - Primer Tono - Verso 3 - Moderato mosso.flac -=- CDDA (100%)04 -=- 04 - Salmodia Organica - Primer Tono - Verso 4 - Allegro moderato.flac -=- CDDA (58%)05 -=- 05 - Salmodia Organica - Segundo Tono - Verso 1 - Allegretto.flac -=- CDDA (99%)06 -=- 06 - Salmodia Organica - Segundo Tono - Verso 2 - Allegro.flac -=- CDDA (100%)07 -=- 07 - Salmodia Organica - Segundo Tono - Verso 3 - Andante.flac -=- CDDA (100%)08 -=- 08 - Salmodia Organica - Segundo Tono - Verso 4 - Allegro non Molto.flac -=- CDDA (100%)09 -=- 09 - Salmodia Organica - Tercer Tono - Verso 1 - Allegro.flac -=- CDDA (100%)10 -=- 10 - Salmodia Organica - Tercer Tono - Verso 2 - Moderato.flac -=- ERROR11 -=- 11 - Salmodia Organica - Tercer Tono - Verso 3 - Andante movido.flac -=- CDDA (100%)12 -=- 12 - Salmodia Organica - Tercer Tono - Verso 4 - Allegro.flac -=- CDDA (100%)13 -=- 13 - Salmodia Organica - Cuarto Tono - Verso 1 - Allegro Moderato.flac -=- CDDA (100%)14 -=- 14 - Salmodia Organica - Cuarto Tono - Verso 2 - Allegretto.flac -=- CDDA (100%)15 -=- 15 - Salmodia Organica - Cuarto Tono - Verso 3 - Maestoso.flac -=- CDDA (100%)16 -=- 16 - Salmodia Organica - Cuarto Tono - Verso 4 - Moderato.flac -=- CDDA (100%)17 -=- 17 - Salmodia Organica - Quinto Tono - Verso 1 - Allegro non molto.flac -=- CDDA (100%)18 -=- 18 - Salmodia Organica - Quinto Tono - Verso 2 - Andante.flac -=- CDDA (100%)19 -=- 19 - Salmodia Organica - Quinto Tono - Verso 3 - Moderato.flac -=- CDDA (99%)20 -=- 20 - Salmodia Organica - Sexto Tono - Verso 1 - Moderato.flac -=- CDDA (43%)21 -=- 21 - Salmodia Organica - Sexto Tono - Verso 2 - Allegro.flac -=- CDDA (62%)22 -=- 22 - Salmodia Organica - Sexto Tono - Verso 3 - Andantino.flac -=- CDDA (100%)23 -=- 23 - Salmodia Organica - Sexto Tono - Verso 4 - Moderato.flac -=- CDDA (100%)24 -=- 24 - Salmodia Organica - Septimo Tono - Verso 1 - Allegro Moderato.flac -=- CDDA (100%)25 -=- 25 - Salmodia Organica - Septimo Tono - Verso 2 - Allegretto.flac -=- CDDA (100%)26 -=- 26 - Salmodia Organica - Septimo Tono - Verso 3 - Andantino.flac -=- CDDA (100%)27 -=- 27 - Salmodia Organica - Septimo Tono - Verso 4 - Allegro non molto.flac -=- CDDA (100%)28 -=- 28 - Salmodia Organica - Octavo Tono - Verso 1 - Allegro assai.flac -=- CDDA (99%)29 -=- 29 - Salmodia Organica - Octavo Tono - Verso 2 - Allegro mosso.flac -=- CDDA (43%)30 -=- 30 - Salmodia Organica - Octavo Tono - Verso 3 - Allegro.flac -=- CDDA (100%)31 -=- 31 - Elevacion y Plegaria en si bemol mayor.flac -=- CDDA (100%)32 -=- 32 - Elevacion en sol menor y Plegaria en sol mayor.flac -=- CDDA (100%)33 -=- 33 - Elevacion en fa menor y Plegaria en fa mayor.flac -=- CDDA (100%)34 -=- 34 - Sonata para organo en re mayor (Allegro).flac -=- CDDA (100%)35 -=- 35 - Sonata para organo en fa mayor (Allegro).flac -=- CDDA (43%)
Summary 92,50% CDDA
33995172

Скриншот спектра частот

-Доп. информация: Producer, recording engineer and tape editor: Christoph Martin Frommen
Recording date: 20,21 & 22.08.2004; Microphones: DPA 4006

Информация из буклета

Felipe Gorriti y Osambela was born in Huarte-Araquil (Navarra) on 23rd August 1839 and died in Tolosa (Guipúzcoa) on 12th March 1896.
He studied first of all with his father León Gorriti who was composer and organist in his hometown Huarte-Araquil, also gave organ and violin lessons there and directed the local orchestra. Felipe Gorriti broadened his knowledges later in piano and harmony with Mariano Garcia, conductor of the cathedral of Pamplona, continued with Cándido Aguayo, organist in Santa María de Tolosa, and finally finished his studies in Madrid at the Conservatorio real through composition and organ studies with Hilarión Eslava and Román Jimeno. He got his diploma and medal.
When he was twenty years old he was appointed, in 1859, after a competition, as organist of the united parishes of Santa Maria and San Pedro de Tafalla (Navarra), where he stayed until 1867. During these eight years he wrote numerous works for the baroque organ with two manuals, which had been ordered by the parish in 1858 from Hermenegildo Gómez. We deal here with a typical instrument in the Iberian organ tradition, with a very classical stop list - however with an extension of the manual up to 56 keys and a pedal board with 13 keys, built in the German style, a pedal keyboard, which already allowed - although limited to 13 keys - to realize the tiptoe and heel technique.
This organ was consecrated in 1862 - nevertheless it has to be reminded, that few years before, 1856 and 1857, already the first two romantic organs in Spain had been inaugurated: the Cavaillé-Coll organ of Lekeitio (Vizcaya, Baskenland) and the Merklin organ of Murcia, respectively.
On the 25th October 1867, when he was 28 years old, Felipe Gomti conquers the organist and conductor position of the church of Santa María de Tolosa (Guipúzcoa, Basque country), after winning out in the end in a competition with numerous, exceptional competitors. Here he remains up to his death which overtook him, as already mentioned above, in 1896 at the age of 57. Before, in 1878, he had been also appointed the conductor of the orchestra and the music academy of this place.
* * *
Hilarión Eslava and the organ works of Felipe Gorriti
Hilarión Eslava, priest and composer of great reputation, inspirer of the reform of the sacred music in Spain and conveyor of the construction of the big Merklin organ in Murcia (just to mention only a few of his numerous initiatives and activities in his lifetime), was also the leading organ teacher at the Madrid Conservatory and later director of this institute. There is no doubt, that the years when Felipe Gorriti studied organ and composition with him, influenced his later artistic evolution a lot.
During the 8 years which passed by in Tafalla, Gorriti wrote approximatively the two thirds of his organ works with baroque character, tailored to the organ which he played; his style evolved later in Tolosa where he wrote works in romantic style and sound.
In total we registered a group of 25 compositions for organ that can be divided up as follows: an andante Mosso, two sonatas, ten Elevaciones bipartitas, four Ofertorios, three suites of versets using the eight church modes, six versos for the Pange lingua, five versos for the Magnificat, a quartet and two funeral marches.
As already mentioned, the most outstanding aspect of his organ works (as well as his sacred music for choir, orchestra and organ) is the increasing evolution from the baroque to the romantic style. Also various prices which he won in Paris are to be emphasized.
In the years between 1881 and 1883 Felipe Gorriti participates at the competitions which are organized monthly through the society of the Parisian organists and conductors. The importance of these competitions can be estimated at the prestige of the juiy members who had to judge the presented compositions. Among these we find musicians like César Franck, Théodore Dubois, Eugene Gigout, Alexandre Guilmant and others.
The rewards Gorriti receives in these three years are the following ones:
On 14th October 1881 he receives a First Mention for the Elevación y Plegaria for organ in f major.
On 12th November of the same year he wins the first price for the motet for soprano or tenor and organ Sub Tuum Praesidium.
On 20th March 1882 he receives a First Mention for the motet Inviolata for three mixed voices and organ.
On 17th May 1882 he receives a First Mention with his work O Salutaris for soprano or tenor and organ in e major through unanimous decision of the jury.
On 26th June 1882 he receives the first price through unanimous decision of the jury for his funeral march in c minor, presumably the first work written in Spain with a entirely romantic character and a separate notation system for the pedal part.
On 12th August 1882 the first price was awarded to him unanimously for his composition of the 5 versos for the Magnificat.
On 10th July 1883 he receives the first price for his Sanctus for four mixed voices and organ entided Pleni sunt coeli et terra.
This so extraordinary process of a development from one era to another, combined with the adaptation of two completely different instruments as are the Spanish baroque and the French romantic organ, as well as the international esteem mentioned before, shows clearly that Gorriti is an outstanding figure among the other Spanish organ composers of his time. He is the key figure of the crossing from the baroque era to the romanticism in the Spanish organ music.Esteban Elizondo Iriarte

[Цитировать]

2 часть http://teatrix.ru/viewtopic.php?t=12600


Показать сообщения:    

Текущее время: 06-Дек 20:59

Часовой пояс: UTC + 3


Вы не можете начинать темы
Вы не можете отвечать на сообщения
Вы не можете редактировать свои сообщения
Вы не можете удалять свои сообщения
Вы не можете голосовать в опросах
Вы не можете прикреплять файлы к сообщениям
Вы не можете скачивать файлы