(Classical/Solo/Piano) Chopin: 26 Préludes. Scriabine / Скрябин: Sonate No.2 Op.19 (Beatrice Rana) - 2012, FLAC (tracks+.cue) lossless


 

[Цитировать]

Beatrice Rana — Frederic Chopin: 26 Préludes. Alexander Scriabine: Sonate No.2, Op.19-Classical/Solo/Piano • Atma • ACD22614 • 2012 • lossless • FLAC • tracks+.cue • 00:58:04 • what.cd • сканов нет-01-24. Chopin: 24 Préludes, Op.28
25. Chopin: Prélude in C-sharp minor, Op.45
26. Chopin: Prélude in A-flat, Op. Posth.
27-28. Scriabine: Sonata No.2 in G-sharp minor, Op.19
-Beatrice Rana, piano-Беатриче Рана родилась в 1993 году в семье музыкантов и своё музыкальное образование начала с 4-х лет, а её дебют с оркестром, в котором она исполнила концерт Баха Фа минор, состоялся когда ей было девять. В 2012 году выпускает свой первый диск с произведениями Скрябина и Шопена. Двадцатидвухлетняя Беатриче потрясяла мир классической музыки и вызвала восхищение и интерес у представителей, дирижёров, критиков и слушателей во многих странах. В июне 2013 года она завоевала серебрянную медаль и приз зрительских симпатий на престижном конкурсе им. Ван Клиберна, внеся новый уровень в её и без того многообещающую карьеру.
-

cue

REM GENRE Classical
REM DATE 2012
REM DISCID 8E0D9C1C
REM COMMENT "ExactAudioCopy v1.0b3"
PERFORMER "Beatrice Rana"
TITLE "Chopin. Scriabine"
FILE "01 - 24 preludes op 28.wav" WAVE
TRACK 01 AUDIO
TITLE "24 preludes op 28"
PERFORMER "Beatrice Rana"
INDEX 01 00:00:00
FILE "02 - 24 preludes op 28.wav" WAVE
TRACK 02 AUDIO
TITLE "24 preludes op 28"
PERFORMER "Beatrice Rana"
INDEX 01 00:00:00
FILE "03 - 24 preludes op 28.wav" WAVE
TRACK 03 AUDIO
TITLE "24 preludes op 28"
PERFORMER "Beatrice Rana"
INDEX 01 00:00:00
FILE "04 - 24 preludes op 28.wav" WAVE
TRACK 04 AUDIO
TITLE "24 preludes op 28"
PERFORMER "Beatrice Rana"
INDEX 01 00:00:00
FILE "05 - 24 preludes op 28.wav" WAVE
TRACK 05 AUDIO
TITLE "24 preludes op 28"
PERFORMER "Beatrice Rana"
INDEX 01 00:00:00
FILE "06 - 24 preludes op 28.wav" WAVE
TRACK 06 AUDIO
TITLE "24 preludes op 28"
PERFORMER "Beatrice Rana"
INDEX 01 00:00:00
FILE "07 - 24 preludes op 28.wav" WAVE
TRACK 07 AUDIO
TITLE "24 preludes op 28"
PERFORMER "Beatrice Rana"
INDEX 01 00:00:00
FILE "08 - 24 preludes op 28.wav" WAVE
TRACK 08 AUDIO
TITLE "24 preludes op 28"
PERFORMER "Beatrice Rana"
INDEX 01 00:00:00
FILE "09 - 24 preludes op 28.wav" WAVE
TRACK 09 AUDIO
TITLE "24 preludes op 28"
PERFORMER "Beatrice Rana"
INDEX 01 00:00:00
FILE "10 - 24 preludes op 28.wav" WAVE
TRACK 10 AUDIO
TITLE "24 preludes op 28"
PERFORMER "Beatrice Rana"
INDEX 01 00:00:00
FILE "11 - 24 preludes op 28.wav" WAVE
TRACK 11 AUDIO
TITLE "24 preludes op 28"
PERFORMER "Beatrice Rana"
INDEX 01 00:00:00
FILE "12 - 24 preludes op 28.wav" WAVE
TRACK 12 AUDIO
TITLE "24 preludes op 28"
PERFORMER "Beatrice Rana"
INDEX 01 00:00:00
FILE "13 - 24 preludes op 28.wav" WAVE
TRACK 13 AUDIO
TITLE "24 preludes op 28"
PERFORMER "Beatrice Rana"
INDEX 01 00:00:00
FILE "14 - 24 preludes op 28.wav" WAVE
TRACK 14 AUDIO
TITLE "24 preludes op 28"
PERFORMER "Beatrice Rana"
INDEX 01 00:00:00
FILE "15 - 24 preludes op 28.wav" WAVE
TRACK 15 AUDIO
TITLE "24 preludes op 28"
PERFORMER "Beatrice Rana"
INDEX 01 00:00:00
FILE "16 - 24 preludes op 28.wav" WAVE
TRACK 16 AUDIO
TITLE "24 preludes op 28"
PERFORMER "Beatrice Rana"
INDEX 01 00:00:00
FILE "17 - 24 preludes op 28.wav" WAVE
TRACK 17 AUDIO
TITLE "24 preludes op 28"
PERFORMER "Beatrice Rana"
INDEX 01 00:00:00
FILE "18 - 24 preludes op 28.wav" WAVE
TRACK 18 AUDIO
TITLE "24 preludes op 28"
PERFORMER "Beatrice Rana"
INDEX 01 00:00:00
FILE "19 - 24 preludes op 28.wav" WAVE
TRACK 19 AUDIO
TITLE "24 preludes op 28"
PERFORMER "Beatrice Rana"
INDEX 01 00:00:00
FILE "20 - 24 preludes op 28.wav" WAVE
TRACK 20 AUDIO
TITLE "24 preludes op 28"
PERFORMER "Beatrice Rana"
INDEX 01 00:00:00
FILE "21 - 24 preludes op 28.wav" WAVE
TRACK 21 AUDIO
TITLE "24 preludes op 28"
PERFORMER "Beatrice Rana"
INDEX 01 00:00:00
FILE "22 - 24 preludes op 28.wav" WAVE
TRACK 22 AUDIO
TITLE "24 preludes op 28"
PERFORMER "Beatrice Rana"
INDEX 01 00:00:00
FILE "23 - 24 preludes op 28.wav" WAVE
TRACK 23 AUDIO
TITLE "24 preludes op 28"
PERFORMER "Beatrice Rana"
INDEX 01 00:00:00
FILE "24 - 24 preludes op 28.wav" WAVE
TRACK 24 AUDIO
TITLE "24 preludes op 28"
PERFORMER "Beatrice Rana"
INDEX 01 00:00:00
TRACK 25 AUDIO
TITLE "Prelude en la bemol majeur"
PERFORMER "Beatrice Rana"
INDEX 00 02:23:17
FILE "25 - Prelude en la bemol majeur.wav" WAVE
INDEX 01 00:00:00
FILE "26 - Prelude en do diese mineur.wav" WAVE
TRACK 26 AUDIO
TITLE "Prelude en do diese mineur"
PERFORMER "Beatrice Rana"
INDEX 01 00:00:00
TRACK 27 AUDIO
TITLE "Sonate n 2 en sol diese mineur"
PERFORMER "Beatrice Rana"
INDEX 00 00:43:02
FILE "27 - Sonate n 2 en sol diese mineur.wav" WAVE
INDEX 01 00:00:00
FILE "28 - Sonate n 2 en sol diese mineur.wav" WAVE
TRACK 28 AUDIO
TITLE "Sonate n 2 en sol diese mineur"
PERFORMER "Beatrice Rana"
INDEX 01 00:00:00

EAC

Exact Audio Copy V1.0 beta 3 from 29. August 2011
EAC extraction logfile from 11. November 2013, 22:19
Beatrice Rana / Chopin. Scriabine
Used drive : HL-DT-STDVD-RAM GH22LP20 Adapter: 1 ID: 0
Read mode : Secure
Utilize accurate stream : Yes
Defeat audio cache : Yes
Make use of C2 pointers : No
Read offset correction : 102
Overread into Lead-In and Lead-Out : No
Fill up missing offset samples with silence : Yes
Delete leading and trailing silent blocks : No
Null samples used in CRC calculations : Yes
Used interface : Native Win32 interface for Win NT & 2000
Gap handling : Appended to previous track
Used output format : User Defined Encoder
Selected bitrate : 128 kBit/s
Quality : High
Add ID3 tag : No
Command line compressor : C:\Program Files (x86)\Exact Audio Copy\Flac\flac.exe
Additional command line options : -8 -V -T "ARTIST=%artist%" -T "TITLE=%title%" -T "ALBUM=%albumtitle%" -T "DATE=%year%" -T "TRACKNUMBER=%tracknr%" -T "TOTALTRACKS=%numtracks%" -T "GENRE=%genre%" -T "ALBUMARTIST=%albumartist%" -T "ALBUM ARTIST=%albumartist%" -T "COMMENT=EAC Secure Mode, Test & Copy, AccurateRip, FLAC -8" %source%
TOC of the extracted CD
Track | Start | Length | Start sector | End sector
---------------------------------------------------------
1 | 0:00.00 | 0:41.22 | 0 | 3096
2 | 0:41.22 | 2:17.53 | 3097 | 13424
3 | 2:59.00 | 0:54.33 | 13425 | 17507
4 | 3:53.33 | 2:17.16 | 17508 | 27798
5 | 6:10.49 | 0:38.33 | 27799 | 30681
6 | 6:49.07 | 2:09.30 | 30682 | 40386
7 | 8:58.37 | 0:37.56 | 40387 | 43217
8 | 9:36.18 | 1:58.07 | 43218 | 52074
9 | 11:34.25 | 1:41.37 | 52075 | 59686
10 | 13:15.62 | 0:32.51 | 59687 | 62137
11 | 13:48.38 | 0:41.26 | 62138 | 65238
12 | 14:29.64 | 1:12.09 | 65239 | 70647
13 | 15:41.73 | 3:36.26 | 70648 | 86873
14 | 19:18.24 | 0:33.16 | 86874 | 89364
15 | 19:51.40 | 5:24.42 | 89365 | 113706
16 | 25:16.07 | 1:07.11 | 113707 | 118742
17 | 26:23.18 | 3:22.47 | 118743 | 133939
18 | 29:45.65 | 0:56.50 | 133940 | 138189
19 | 30:42.40 | 1:15.41 | 138190 | 143855
20 | 31:58.06 | 1:56.12 | 143856 | 152567
21 | 33:54.18 | 1:57.41 | 152568 | 161383
22 | 35:51.59 | 0:40.67 | 161384 | 164450
23 | 36:32.51 | 0:54.16 | 164451 | 168516
24 | 37:26.67 | 2:27.68 | 168517 | 179609
25 | 39:54.60 | 4:41.46 | 179610 | 200730
26 | 44:36.31 | 0:51.35 | 200731 | 204590
27 | 45:27.66 | 8:30.17 | 204591 | 242857
28 | 53:58.08 | 4:05.69 | 242858 | 261301
Track 1
Filename G:\Torrent\Beatrice Rana - Chopin. Scriabine (2012) [FLAC]\01 - 24 preludes op 28.wav
Pre-gap length 0:00:02.00
Peak level 40.3 %
Extraction speed 0.8 X
Track quality 100.0 %
Test CRC AE048C21
Copy CRC AE048C21
Accurately ripped (confidence 1) [1694C957] (AR v2)
Copy OK
Track 2
Filename G:\Torrent\Beatrice Rana - Chopin. Scriabine (2012) [FLAC]\02 - 24 preludes op 28.wav
Peak level 16.4 %
Extraction speed 1.4 X
Track quality 100.0 %
Test CRC C426512A
Copy CRC C426512A
Accurately ripped (confidence 1) [3539B635] (AR v2)
Copy OK
Track 3
Filename G:\Torrent\Beatrice Rana - Chopin. Scriabine (2012) [FLAC]\03 - 24 preludes op 28.wav
Peak level 24.9 %
Extraction speed 0.7 X
Track quality 99.8 %
Test CRC 5A34FCA9
Copy CRC 5A34FCA9
Accurately ripped (confidence 1) [5A2D1F92] (AR v2)
Copy OK
Track 4
Filename G:\Torrent\Beatrice Rana - Chopin. Scriabine (2012) [FLAC]\04 - 24 preludes op 28.wav
Peak level 48.5 %
Extraction speed 1.5 X
Track quality 100.0 %
Test CRC 93F9B65A
Copy CRC 93F9B65A
Accurately ripped (confidence 1) [E89C0606] (AR v2)
Copy OK
Track 5
Filename G:\Torrent\Beatrice Rana - Chopin. Scriabine (2012) [FLAC]\05 - 24 preludes op 28.wav
Peak level 51.7 %
Extraction speed 0.9 X
Track quality 100.0 %
Test CRC B0F38771
Copy CRC B0F38771
Accurately ripped (confidence 1) [877E9B77] (AR v2)
Copy OK
Track 6
Filename G:\Torrent\Beatrice Rana - Chopin. Scriabine (2012) [FLAC]\06 - 24 preludes op 28.wav
Peak level 20.5 %
Extraction speed 1.6 X
Track quality 100.0 %
Test CRC 9DAFF600
Copy CRC 9DAFF600
Accurately ripped (confidence 1) [E6975B79] (AR v2)
Copy OK
Track 7
Filename G:\Torrent\Beatrice Rana - Chopin. Scriabine (2012) [FLAC]\07 - 24 preludes op 28.wav
Peak level 14.1 %
Extraction speed 1.1 X
Track quality 100.0 %
Test CRC 78B63799
Copy CRC 78B63799
Accurately ripped (confidence 1) [A901FD94] (AR v2)
Copy OK
Track 8
Filename G:\Torrent\Beatrice Rana - Chopin. Scriabine (2012) [FLAC]\08 - 24 preludes op 28.wav
Peak level 51.4 %
Extraction speed 1.7 X
Track quality 100.0 %
Test CRC B153CB2D
Copy CRC B153CB2D
Accurately ripped (confidence 1) [429A0913] (AR v2)
Copy OK
Track 9
Filename G:\Torrent\Beatrice Rana - Chopin. Scriabine (2012) [FLAC]\09 - 24 preludes op 28.wav
Peak level 66.1 %
Extraction speed 1.6 X
Track quality 100.0 %
Test CRC 6FD8B37E
Copy CRC 6FD8B37E
Accurately ripped (confidence 1) [7F325B78] (AR v2)
Copy OK
Track 10
Filename G:\Torrent\Beatrice Rana - Chopin. Scriabine (2012) [FLAC]\10 - 24 preludes op 28.wav
Peak level 26.8 %
Extraction speed 1.1 X
Track quality 100.0 %
Test CRC 818182AD
Copy CRC 818182AD
Accurately ripped (confidence 1) [D24E8936] (AR v2)
Copy OK
Track 11
Filename G:\Torrent\Beatrice Rana - Chopin. Scriabine (2012) [FLAC]\11 - 24 preludes op 28.wav
Peak level 28.3 %
Extraction speed 1.2 X
Track quality 100.0 %
Test CRC 270DAF64
Copy CRC 270DAF64
Accurately ripped (confidence 1) [5F4F5F53] (AR v2)
Copy OK
Track 12
Filename G:\Torrent\Beatrice Rana - Chopin. Scriabine (2012) [FLAC]\12 - 24 preludes op 28.wav
Peak level 73.7 %
Extraction speed 1.6 X
Track quality 100.0 %
Test CRC 9F4A3433
Copy CRC 9F4A3433
Accurately ripped (confidence 1) [6E3870BB] (AR v2)
Copy OK
Track 13
Filename G:\Torrent\Beatrice Rana - Chopin. Scriabine (2012) [FLAC]\13 - 24 preludes op 28.wav
Peak level 19.2 %
Extraction speed 2.1 X
Track quality 100.0 %
Test CRC DA59CB72
Copy CRC DA59CB72
Accurately ripped (confidence 1) [E735EADE] (AR v2)
Copy OK
Track 14
Filename G:\Torrent\Beatrice Rana - Chopin. Scriabine (2012) [FLAC]\14 - 24 preludes op 28.wav
Peak level 51.2 %
Extraction speed 0.8 X
Track quality 99.6 %
Test CRC 30A220DD
Copy CRC 30A220DD
Accurately ripped (confidence 1) [E002B8D4] (AR v2)
Copy OK
Track 15
Filename G:\Torrent\Beatrice Rana - Chopin. Scriabine (2012) [FLAC]\15 - 24 preludes op 28.wav
Peak level 55.2 %
Extraction speed 2.4 X
Track quality 100.0 %
Test CRC 149E3661
Copy CRC 149E3661
Accurately ripped (confidence 1) [7F263A4D] (AR v2)
Copy OK
Track 16
Filename G:\Torrent\Beatrice Rana - Chopin. Scriabine (2012) [FLAC]\16 - 24 preludes op 28.wav
Peak level 67.3 %
Extraction speed 1.8 X
Track quality 100.0 %
Test CRC 86EE1C53
Copy CRC 86EE1C53
Accurately ripped (confidence 1) [93199090] (AR v2)
Copy OK
Track 17
Filename G:\Torrent\Beatrice Rana - Chopin. Scriabine (2012) [FLAC]\17 - 24 preludes op 28.wav
Peak level 56.1 %
Extraction speed 2.4 X
Track quality 100.0 %
Test CRC A0842C5D
Copy CRC A0842C5D
Accurately ripped (confidence 1) [2F4D2D8D] (AR v2)
Copy OK
Track 18
Filename G:\Torrent\Beatrice Rana - Chopin. Scriabine (2012) [FLAC]\18 - 24 preludes op 28.wav
Peak level 98.9 %
Extraction speed 1.7 X
Track quality 100.0 %
Test CRC 08584306
Copy CRC 08584306
Accurately ripped (confidence 1) [BF1C3116] (AR v2)
Copy OK
Track 19
Filename G:\Torrent\Beatrice Rana - Chopin. Scriabine (2012) [FLAC]\19 - 24 preludes op 28.wav
Peak level 44.1 %
Extraction speed 2.0 X
Track quality 100.0 %
Test CRC 5D790EB2
Copy CRC 5D790EB2
Accurately ripped (confidence 1) [7B80E297] (AR v2)
Copy OK
Track 20
Filename G:\Torrent\Beatrice Rana - Chopin. Scriabine (2012) [FLAC]\20 - 24 preludes op 28.wav
Peak level 54.3 %
Extraction speed 1.8 X
Track quality 99.9 %
Test CRC EC93C8E7
Copy CRC EC93C8E7
Accurately ripped (confidence 1) [C5DF33A6] (AR v2)
Copy OK
Track 21
Filename G:\Torrent\Beatrice Rana - Chopin. Scriabine (2012) [FLAC]\21 - 24 preludes op 28.wav
Peak level 72.2 %
Extraction speed 1.8 X
Track quality 99.9 %
Test CRC DC80ED86
Copy CRC DC80ED86
Accurately ripped (confidence 1) [474013B8] (AR v2)
Copy OK
Track 22
Filename G:\Torrent\Beatrice Rana - Chopin. Scriabine (2012) [FLAC]\22 - 24 preludes op 28.wav
Peak level 66.2 %
Extraction speed 1.5 X
Track quality 100.0 %
Test CRC 270DDDB0
Copy CRC 270DDDB0
Accurately ripped (confidence 1) [7B0B535F] (AR v2)
Copy OK
Track 23
Filename G:\Torrent\Beatrice Rana - Chopin. Scriabine (2012) [FLAC]\23 - 24 preludes op 28.wav
Peak level 22.2 %
Extraction speed 1.8 X
Track quality 100.0 %
Test CRC 1848D711
Copy CRC 1848D711
Accurately ripped (confidence 1) [EEA0057A] (AR v2)
Copy OK
Track 24
Filename G:\Torrent\Beatrice Rana - Chopin. Scriabine (2012) [FLAC]\24 - 24 preludes op 28.wav
Peak level 71.5 %
Extraction speed 2.6 X
Track quality 100.0 %
Test CRC 9F614C02
Copy CRC 9F614C02
Accurately ripped (confidence 1) [327EB346] (AR v2)
Copy OK
Track 25
Filename G:\Torrent\Beatrice Rana - Chopin. Scriabine (2012) [FLAC]\25 - Prelude en la bemol majeur.wav
Pre-gap length 0:00:04.51
Peak level 27.9 %
Extraction speed 2.9 X
Track quality 100.0 %
Test CRC 9D810B06
Copy CRC 9D810B06
Accurately ripped (confidence 1) [924C3C1B] (AR v2)
Copy OK
Track 26
Filename G:\Torrent\Beatrice Rana - Chopin. Scriabine (2012) [FLAC]\26 - Prelude en do diese mineur.wav
Peak level 34.0 %
Extraction speed 1.3 X
Track quality 99.7 %
Test CRC A5B20528
Copy CRC A5B20528
Accurately ripped (confidence 1) [9A7DC13C] (AR v2)
Copy OK
Track 27
Filename G:\Torrent\Beatrice Rana - Chopin. Scriabine (2012) [FLAC]\27 - Sonate n 2 en sol diese mineur.wav
Pre-gap length 0:00:08.33
Peak level 77.4 %
Extraction speed 3.3 X
Track quality 100.0 %
Test CRC 6A8FFE6C
Copy CRC 6A8FFE6C
Accurately ripped (confidence 1) [D488D9B1] (AR v2)
Copy OK
Track 28
Filename G:\Torrent\Beatrice Rana - Chopin. Scriabine (2012) [FLAC]\28 - Sonate n 2 en sol diese mineur.wav
Peak level 80.9 %
Extraction speed 3.2 X
Track quality 100.0 %
Test CRC 36632E89
Copy CRC 36632E89
Accurately ripped (confidence 1) [9067252D] (AR v2)
Copy OK
All tracks accurately ripped
No errors occurred
End of status report
==== Log checksum D3915F644865DCC70B5BEA61B40A03C84CFF57109F8475E1F06D21C9E777B689 ====



Показать сообщения:    

Текущее время: 09-Дек 18:31

Часовой пояс: UTC + 3


Вы не можете начинать темы
Вы не можете отвечать на сообщения
Вы не можете редактировать свои сообщения
Вы не можете удалять свои сообщения
Вы не можете голосовать в опросах
Вы не можете прикреплять файлы к сообщениям
Вы не можете скачивать файлы