(Classical/Solo/Piano) Richard Danielpour: The Enchanted Garden (Xiayin Wang) - 2011, FLAC (tracks+.cue) lossless


 

[Цитировать]

Xiayin Wang — Richard Danielpour: The Enchanted Garden-Classical/Solo/Piano • Naxos • № 8559669 • 2011 • lossless • FLAC • tracks+.cue • 00:49:38 • what.cd • сканы-01-05. Preludes, Book 1, "The Enchanted Garden"
No. 1. Promenade || No. 2. Mardi Gras || No. 3. Childhood Memory || No. 4. From the Underground || No. 5. Night
06-12. Show Details Preludes, Book 2, "The Enchanted Garden"
No. 1. Persepolis || No. 2. Surrounded by Idiots || No. 3. Elegy || No. 4. Lean Kat Stride
No. 5. A Community of Silence || No. 6. There's a Ghost in My Room! || No. 7. Winter Solstice
-Xiayin Wang, piano-

cue

REM GENRE Classical
REM DATE 2009
REM DISCID B40B9F0C
REM COMMENT "ExactAudioCopy v0.99pb5"
PERFORMER "Xiayin Wang"
TITLE "Richard Danielpour: The Enchanted Garden for Piano"
FILE "01 - 001 Preludes, Book 1_ Promenade.wav" WAVE
TRACK 01 AUDIO
TITLE "001 Preludes, Book 1_ Promenade"
PERFORMER "Xiayin Wang"
ISRC HKI191016001
INDEX 01 00:00:00
TRACK 02 AUDIO
TITLE "002 Preludes, Book 1_ Mardi Gras"
PERFORMER "Xiayin Wang"
ISRC HKI191016002
INDEX 00 04:29:16
FILE "02 - 002 Preludes, Book 1_ Mardi Gras.wav" WAVE
INDEX 01 00:00:00
TRACK 03 AUDIO
TITLE "003 Preludes, Book 1_ Childhood Memory"
PERFORMER "Xiayin Wang"
ISRC HKI191016003
INDEX 00 03:40:19
FILE "03 - 003 Preludes, Book 1_ Childhood Memory.wav" WAVE
INDEX 01 00:00:00
TRACK 04 AUDIO
TITLE "004 Preludes, Book 1_ From the Underground"
PERFORMER "Xiayin Wang"
ISRC HKI191016004
INDEX 00 02:59:67
FILE "04 - 004 Preludes, Book 1_ From the Underground.wav" WAVE
INDEX 01 00:00:00
TRACK 05 AUDIO
TITLE "005 Preludes, Book 1_ Night"
PERFORMER "Xiayin Wang"
ISRC HKI191016005
INDEX 00 03:04:71
FILE "05 - 005 Preludes, Book 1_ Night.wav" WAVE
INDEX 01 00:00:00
TRACK 06 AUDIO
TITLE "006 Preludes, Book 2_ Persepolis"
PERFORMER "Xiayin Wang"
ISRC HKI191016006
INDEX 00 06:39:57
FILE "06 - 006 Preludes, Book 2_ Persepolis.wav" WAVE
INDEX 01 00:00:00
TRACK 07 AUDIO
TITLE "007 Preludes, Book 2_ Surrounded by Idiots"
PERFORMER "Xiayin Wang"
ISRC HKI191016007
INDEX 00 03:05:29
FILE "07 - 007 Preludes, Book 2_ Surrounded by Idiots.wav" WAVE
INDEX 01 00:00:00
TRACK 08 AUDIO
TITLE "008 Preludes, Book 2_ Elegy"
PERFORMER "Xiayin Wang"
ISRC HKI191016008
INDEX 00 02:38:28
FILE "08 - 008 Preludes, Book 2_ Elegy.wav" WAVE
INDEX 01 00:00:00
TRACK 09 AUDIO
TITLE "009 Preludes, Book 2_ Lean Kat Stride"
PERFORMER "Xiayin Wang"
ISRC HKI191016009
INDEX 00 03:33:29
FILE "09 - 009 Preludes, Book 2_ Lean Kat Stride.wav" WAVE
INDEX 01 00:00:00
TRACK 10 AUDIO
TITLE "010 Preludes, Book 2_ A Community of Silence"
PERFORMER "Xiayin Wang"
ISRC HKI191016010
INDEX 00 02:33:06
FILE "10 - 010 Preludes, Book 2_ A Community of Silence.wav" WAVE
INDEX 01 00:00:00
TRACK 11 AUDIO
TITLE "011 Preludes, Book 2_ There's a Ghost in My Room!"
PERFORMER "Xiayin Wang"
ISRC HKI191016011
INDEX 00 05:13:10
FILE "11 - 011 Preludes, Book 2_ There's a Ghost in My Room!.wav" WAVE
INDEX 01 00:00:00
TRACK 12 AUDIO
TITLE "012 Preludes, Book 2_ Winter Solstice"
PERFORMER "Xiayin Wang"
ISRC HKI191016012
INDEX 00 02:53:61
FILE "12 - 012 Preludes, Book 2_ Winter Solstice.wav" WAVE
INDEX 01 00:00:00

EAC

Exact Audio Copy V0.99 prebeta 5 from 4. May 2009
EAC extraction logfile from 20. April 2015, 21:52
Xiayin Wang / Richard Danielpour: The Enchanted Garden for Piano
Used drive : HL-DT-STDVD+-RW GH50N Adapter: 1 ID: 0
Read mode : Secure
Utilize accurate stream : Yes
Defeat audio cache : Yes
Make use of C2 pointers : No
Read offset correction : 667
Overread into Lead-In and Lead-Out : No
Fill up missing offset samples with silence : Yes
Delete leading and trailing silent blocks : No
Null samples used in CRC calculations : Yes
Used interface : Native Win32 interface for Win NT & 2000
Used output format : User Defined Encoder
Selected bitrate : 768 kBit/s
Quality : High
Add ID3 tag : No
Command line compressor : C:\Program Files (x86)\Exact Audio Copy\FLAC\FLAC.EXE
Additional command line options : -6 -V -T "ARTIST=%a" -T "TITLE=%t" -T "ALBUM=%g" -T "DATE=%y" -T "TRACKNUMBER=%n" -T "GENRE=%m" -T "COMMENT=%e" %s -o %d
TOC of the extracted CD
Track | Start | Length | Start sector | End sector
---------------------------------------------------------
1 | 0:00.00 | 4:33.40 | 0 | 20514
2 | 4:33.40 | 3:44.30 | 20515 | 37344
3 | 8:17.70 | 3:04.24 | 37345 | 51168
4 | 11:22.19 | 3:06.36 | 51169 | 65154
5 | 14:28.55 | 6:42.06 | 65155 | 95310
6 | 21:10.61 | 3:07.39 | 95311 | 109374
7 | 24:18.25 | 2:39.35 | 109375 | 121334
8 | 26:57.60 | 3:35.61 | 121335 | 137520
9 | 30:33.46 | 2:34.66 | 137521 | 149136
10 | 33:08.37 | 5:18.62 | 149137 | 173048
11 | 38:27.24 | 2:55.56 | 173049 | 186229
12 | 41:23.05 | 8:11.70 | 186230 | 223124
Range status and errors
Selected range
Filename I:\EAC rips\Naxos_8.559669 - Danielpour -The Enchanted Garden - Preludes, Books 1 & 2 - Xiayin Wang\Xiayin Wang - Richard Danielpour The Enchanted Garden for Piano.wav
Peak level 100.0 %
Range quality 99.9 %
Test CRC 12C086A3
Copy CRC 12C086A3
Copy OK
No errors occurred
AccurateRip summary
Track 1 cannot be verified as accurate (confidence 3) [DC67BDCA], AccurateRip returned [D6264719]
Track 2 cannot be verified as accurate (confidence 3) [4BA0061A], AccurateRip returned [7A66E567]
Track 3 cannot be verified as accurate (confidence 3) [6BAB4039], AccurateRip returned [9838E3EE]
Track 4 cannot be verified as accurate (confidence 3) [6F2C2772], AccurateRip returned [B878D6FA]
Track 5 cannot be verified as accurate (confidence 3) [F47D26CC], AccurateRip returned [D57AD8D0]
Track 6 cannot be verified as accurate (confidence 3) [5C138784], AccurateRip returned [700007AA]
Track 7 cannot be verified as accurate (confidence 3) [767315B9], AccurateRip returned [366A7F6E]
Track 8 cannot be verified as accurate (confidence 3) [3ED014A1], AccurateRip returned [4822D201]
Track 9 cannot be verified as accurate (confidence 3) [381DFEDD], AccurateRip returned [8DF650ED]
Track 10 cannot be verified as accurate (confidence 3) [CA69BB9F], AccurateRip returned [922E0689]
Track 11 cannot be verified as accurate (confidence 3) [B69FE7C6], AccurateRip returned [C5D912EE]
Track 12 cannot be verified as accurate (confidence 3) [431B7E16], AccurateRip returned [9853180B]
No tracks could be verified as accurate
You may have a different pressing from the one(s) in the database
End of status report
------------------------------------------------------------
Exact Audio Copy V0.99 prebeta 5 from 4. May 2009
EAC extraction logfile from 21. April 2015, 8:34
Xiayin Wang / Richard Danielpour: The Enchanted Garden for Piano
Used drive : HL-DT-STDVD+-RW GH50N Adapter: 1 ID: 0
Read mode : Secure
Utilize accurate stream : Yes
Defeat audio cache : Yes
Make use of C2 pointers : No
Read offset correction : 667
Overread into Lead-In and Lead-Out : No
Fill up missing offset samples with silence : Yes
Delete leading and trailing silent blocks : No
Null samples used in CRC calculations : Yes
Used interface : Native Win32 interface for Win NT & 2000
Gap handling : Not detected, thus appended to previous track
Used output format : User Defined Encoder
Selected bitrate : 768 kBit/s
Quality : High
Add ID3 tag : No
Command line compressor : C:\Program Files (x86)\Exact Audio Copy\FLAC\FLAC.EXE
Additional command line options : -6 -V -T "ARTIST=%a" -T "TITLE=%t" -T "ALBUM=%g" -T "DATE=%y" -T "TRACKNUMBER=%n" -T "GENRE=%m" -T "COMMENT=%e" %s -o %d
TOC of the extracted CD
Track | Start | Length | Start sector | End sector
---------------------------------------------------------
1 | 0:00.00 | 4:33.40 | 0 | 20514
2 | 4:33.40 | 3:44.30 | 20515 | 37344
3 | 8:17.70 | 3:04.24 | 37345 | 51168
4 | 11:22.19 | 3:06.36 | 51169 | 65154
5 | 14:28.55 | 6:42.06 | 65155 | 95310
6 | 21:10.61 | 3:07.39 | 95311 | 109374
7 | 24:18.25 | 2:39.35 | 109375 | 121334
8 | 26:57.60 | 3:35.61 | 121335 | 137520
9 | 30:33.46 | 2:34.66 | 137521 | 149136
10 | 33:08.37 | 5:18.62 | 149137 | 173048
11 | 38:27.24 | 2:55.56 | 173049 | 186229
12 | 41:23.05 | 8:11.70 | 186230 | 223124
Track 1
Filename I:\EAC rips\Naxos_8.559669 - Danielpour -The Enchanted Garden - Preludes, Books 1 & 2 - Xiayin Wang\01 - 001 Preludes, Book 1_ Promenade.wav
Peak level 50.9 %
Track quality 100.0 %
Test CRC 3165D709
Copy CRC 3165D709
Cannot be verified as accurate (confidence 3) [DC67BDCA], AccurateRip returned [D6264719]
Copy OK
Track 2
Filename I:\EAC rips\Naxos_8.559669 - Danielpour -The Enchanted Garden - Preludes, Books 1 & 2 - Xiayin Wang\02 - 002 Preludes, Book 1_ Mardi Gras.wav
Peak level 71.9 %
Track quality 100.0 %
Test CRC 74F6C623
Copy CRC 74F6C623
Cannot be verified as accurate (confidence 3) [4BA0061A], AccurateRip returned [7A66E567]
Copy OK
Track 3
Filename I:\EAC rips\Naxos_8.559669 - Danielpour -The Enchanted Garden - Preludes, Books 1 & 2 - Xiayin Wang\03 - 003 Preludes, Book 1_ Childhood Memory.wav
Peak level 21.5 %
Track quality 100.0 %
Test CRC E1F4BBD9
Copy CRC E1F4BBD9
Cannot be verified as accurate (confidence 3) [6BAB4039], AccurateRip returned [9838E3EE]
Copy OK
Track 4
Filename I:\EAC rips\Naxos_8.559669 - Danielpour -The Enchanted Garden - Preludes, Books 1 & 2 - Xiayin Wang\04 - 004 Preludes, Book 1_ From the Underground.wav
Peak level 39.6 %
Track quality 100.0 %
Test CRC D273C5A2
Copy CRC D273C5A2
Cannot be verified as accurate (confidence 3) [6F2C2772], AccurateRip returned [B878D6FA]
Copy OK
Track 5
Filename I:\EAC rips\Naxos_8.559669 - Danielpour -The Enchanted Garden - Preludes, Books 1 & 2 - Xiayin Wang\05 - 005 Preludes, Book 1_ Night.wav
Peak level 65.5 %
Track quality 100.0 %
Test CRC 28A088ED
Copy CRC 28A088ED
Cannot be verified as accurate (confidence 3) [F47D26CC], AccurateRip returned [D57AD8D0]
Copy OK
Track 6
Filename I:\EAC rips\Naxos_8.559669 - Danielpour -The Enchanted Garden - Preludes, Books 1 & 2 - Xiayin Wang\06 - 006 Preludes, Book 2_ Persepolis.wav
Peak level 28.5 %
Track quality 100.0 %
Test CRC 8E8AD364
Copy CRC 8E8AD364
Cannot be verified as accurate (confidence 3) [5C138784], AccurateRip returned [700007AA]
Copy OK
Track 7
Filename I:\EAC rips\Naxos_8.559669 - Danielpour -The Enchanted Garden - Preludes, Books 1 & 2 - Xiayin Wang\07 - 007 Preludes, Book 2_ Surrounded by Idiots.wav
Peak level 96.1 %
Track quality 100.0 %
Test CRC 098E8B4A
Copy CRC 098E8B4A
Cannot be verified as accurate (confidence 3) [767315B9], AccurateRip returned [366A7F6E]
Copy OK
Track 8
Filename I:\EAC rips\Naxos_8.559669 - Danielpour -The Enchanted Garden - Preludes, Books 1 & 2 - Xiayin Wang\08 - 008 Preludes, Book 2_ Elegy.wav
Peak level 35.3 %
Track quality 100.0 %
Test CRC 66BD084D
Copy CRC 66BD084D
Cannot be verified as accurate (confidence 3) [3ED014A1], AccurateRip returned [4822D201]
Copy OK
Track 9
Filename I:\EAC rips\Naxos_8.559669 - Danielpour -The Enchanted Garden - Preludes, Books 1 & 2 - Xiayin Wang\09 - 009 Preludes, Book 2_ Lean Kat Stride.wav
Peak level 100.0 %
Track quality 100.0 %
Test CRC 8BC6CDAB
Copy CRC 8BC6CDAB
Cannot be verified as accurate (confidence 3) [381DFEDD], AccurateRip returned [8DF650ED]
Copy OK
Track 10
Filename I:\EAC rips\Naxos_8.559669 - Danielpour -The Enchanted Garden - Preludes, Books 1 & 2 - Xiayin Wang\10 - 010 Preludes, Book 2_ A Community of Silence.wav
Peak level 95.6 %
Track quality 100.0 %
Test CRC E7B923BD
Copy CRC E7B923BD
Cannot be verified as accurate (confidence 3) [CA69BB9F], AccurateRip returned [922E0689]
Copy OK
Track 11
Filename I:\EAC rips\Naxos_8.559669 - Danielpour -The Enchanted Garden - Preludes, Books 1 & 2 - Xiayin Wang\11 - 011 Preludes, Book 2_ There's a Ghost in My Room!.wav
Peak level 100.0 %
Track quality 100.0 %
Test CRC 6D91C7F9
Copy CRC 6D91C7F9
Cannot be verified as accurate (confidence 3) [B69FE7C6], AccurateRip returned [C5D912EE]
Copy OK
Track 12
Filename I:\EAC rips\Naxos_8.559669 - Danielpour -The Enchanted Garden - Preludes, Books 1 & 2 - Xiayin Wang\12 - 012 Preludes, Book 2_ Winter Solstice.wav
Peak level 92.4 %
Track quality 100.0 %
Test CRC 84242361
Copy CRC 84242361
Cannot be verified as accurate (confidence 3) [431B7E16], AccurateRip returned [9853180B]
Copy OK
No tracks could be verified as accurate
You may have a different pressing from the one(s) in the database
No errors occurred
End of status report



Показать сообщения:    

Текущее время: 10-Дек 08:05

Часовой пояс: UTC + 3


Вы не можете начинать темы
Вы не можете отвечать на сообщения
Вы не можете редактировать свои сообщения
Вы не можете удалять свои сообщения
Вы не можете голосовать в опросах
Вы не можете прикреплять файлы к сообщениям
Вы не можете скачивать файлы