(Classical) Gustav Mahler - Totenfeier • Lieder eines fahrenden Gesellen / Густав Малер - Тризна • Песни странствующего подмастерья (Sarah Connolly, Владимир Юровский / Vladimir Jurowski, 21.01.2011) - 2012, FLAC (image+.cue) lossless


 

[Цитировать]

Gustav Mahler | Густав Малер
(1860–1911)



Totenfeier | Lieder eines fahrenden Gesellen
Тризна | Песни странствующего подмастерья


Sarah Connolly mezzo-soprano
Orchestra of the Age of Enlightenment
Владимир Юровский conductor


Жанр: Classical / Orchestral / Vocal
Дата и место записи: Royal Festival Hall, Southbank Centre, London, 21 January 2011 (live)
Формат записи: DDD, Stereo
Год издания диска: 2012
Издатель (лейбл): Signum Records
Номер по каталогу: SIGCD259
Аудиокодек: FLAC
Тип рипа: image+.cue
Битрейт аудио: lossless
Продолжительность: 38:16
Наличие сканов в содержимом раздачи: да
Источник: блог OdeonMusic


Tracklist / Треклист
«Totenfeier» (Sinfonische Dichtung) - 22:32«Lieder eines fahrenden Gesellen» - 15:44
I. «Wenn mein Schatz Hochzeit macht» - 3:38
  • II. «Ging heut' morgen übers Feld» - 3:47
  • III. «Ich hab' ein glühend Messer» - 3:08
  • IV. «Die zwei blauen Augen von meinem Schatz» - 5:11

    -

    EAC log / Отчёт EAC

    Exact Audio Copy V1.0 beta 3 from 29. August 2011
    EAC extraction logfile from 1. August 2013, 10:29
    Vladimir Jurowski / Mahler - Totenfeier, Lieder eines fahrenden Gesellen - Vladimir Jurowski
    Used drive : TSSTcorpCDDVDW SH-222BB Adapter: 2 ID: 1
    Read mode : SecureUtilize accurate stream : YesDefeat audio cache : YesMake use of C2 pointers : No
    Read offset correction : 6Overread into Lead-In and Lead-Out : NoFill up missing offset samples with silence : YesDelete leading and trailing silent blocks : NoNull samples used in CRC calculations : YesUsed interface : Native Win32 interface for Win NT & 2000
    Used output format : User Defined EncoderSelected bitrate : 1024 kBit/sQuality : HighAdd ID3 tag : NoCommand line compressor : C:\Program Files\Exact Audio Copy\Flac\flac.exeAdditional command line options : -8 -V -T "TITLE=%title%" -T "ARTIST=%artist%" -T "ALBUMARTIST=%albumartist%" -T "ALBUM=%albumtitle%" -T "DATE=%year%" -T "TRACKNUMBER=%tracknr%" -T "TRACKTOTAL=%numtracks%" -T "GENRE=%genre%" -T "COMMENT=%comment%" -T "PERFORMER=%albuminterpret%" -T "COMPOSER=%composer%" %source% -o %dest%
    TOC of the extracted CD
    Track | Start | Length | Start sector | End sector --------------------------------------------------------- 1 | 0:00.00 | 22:32.30 | 0 | 101429 2 | 22:32.30 | 3:38.03 | 101430 | 117782 3 | 26:10.33 | 3:46.69 | 117783 | 134801 4 | 29:57.27 | 3:07.57 | 134802 | 148883 5 | 33:05.09 | 5:11.25 | 148884 | 172233
    Range status and errors
    Selected range
    Filename G:\Ripped general\[8705] Mahler – Totenfeier, Lieder eines fahrenden Gesellen – Vladimir Jurowski\Mahler - Totenfeier, Lieder eines fahrenden Gesellen - Vladimir Jurowski.wav
    Peak level 95.6 % Extraction speed 6.5 X Range quality 99.9 % Test CRC 1AE0CD70 Copy CRC 1AE0CD70 Copy OK
    No errors occurred
    AccurateRip summary
    Track 1 not present in databaseTrack 2 not present in databaseTrack 3 not present in databaseTrack 4 not present in databaseTrack 5 not present in database
    None of the tracks are present in the AccurateRip database
    End of status report

    auCDtect Task Manager log / Отчёт auCDtect Task Manager

    -----------------------
    DON'T MODIFY THIS FILE
    -----------------------
    PERFORMER: auCDtect Task Manager, ver. 1.5.1RC3 build 1.5.1.4Copyright (c) 2008-2010 y-soft. All rights reserved
    ANALYZER: auCDtect: CD records authenticity detector, version 0.8.2Copyright (c) 2004 Oleg Berngardt. All rights reserved.Copyright (c) 2004 Alexander Djourik. All rights reserved.
    FILE: Mahler. Totenfeier, Lieder eines fahrenden Gesellen (Connolly, Jurowski).flac Size: 138510080 Hash: 699182A0E206BBC15BC4A63DA1466D77 Accuracy: -m0 Conclusion: CDDA 100% Signature: EA0A9F0A30A9A0D085A7D41CAE09FBE3B259AC26

    CUETools log / Отчёт CUETools

    [CUETools log; Date: 06.01.2016 15:19:46; Version: 2.1.4][AccurateRip ID: 000a4d3d-002bd79a-5108f805] found.Track [ CRC | V2 ] Status 01 [e5109de6|58db69ae] (0+6/6) Accurately ripped 02 [96f18922|c9f47d70] (0+6/6) Accurately ripped 03 [53bfffb0|b000bfcf] (0+6/6) Accurately ripped 04 [520363fa|a21dcc24] (0+6/6) Accurately ripped 05 [083c0a0f|33d24cff] (0+6/6) Accurately ripped
    Track Peak [ CRC32 ] [W/O NULL] [ LOG ] -- 95,6 [1AE0CD70] [F38ABBEA] CRC32 01 95,6 [676D9DE0] [2A03583D] 02 43,7 [2A7AB097] [FE6F8D4A] 03 89,9 [38007938] [7AF0F5F7] 04 93,8 [165B25AC] [FEFA4721] 05 31,5 [9A6730F0] [156EA0F2]

    CUE sheet

    TITLE "Gustav Mahler: Totenfeier • Lieder eines fahrenden Gesellen"PERFORMER "Vladimir Jurowski"REM GENRE ClassicalREM DISCID 5108F805REM COMMENT "ExactAudioCopy v1.0b3"FILE "Mahler. Totenfeier, Lieder eines fahrenden Gesellen (Connolly, Jurowski).flac" WAVE TRACK 01 AUDIO TITLE "«Totenfeier» (Sinfonische Dichtung)" PERFORMER "Orchestra of the Age of Enlightenment. Vladimir Jurowski, conductor" REM DATE 2011 INDEX 01 00:00:00 TRACK 02 AUDIO TITLE "«Lieder eines fahrenden Gesellen»: I. «Wenn mein Schatz Hochzeit macht»" PERFORMER "Sarah Connolly, Orchestra of the Age of Enlightenment. Vladimir Jurowski, conductor" REM DATE 2011 INDEX 01 22:32:30 TRACK 03 AUDIO TITLE "«Lieder eines fahrenden Gesellen»: II. «Ging heut' morgen übers Feld»" PERFORMER "Sarah Connolly, Orchestra of the Age of Enlightenment. Vladimir Jurowski, conductor" REM DATE 2011 INDEX 01 26:10:33 TRACK 04 AUDIO TITLE "«Lieder eines fahrenden Gesellen»: III. «Ich hab' ein glühend Messer»" PERFORMER "Sarah Connolly, Orchestra of the Age of Enlightenment. Vladimir Jurowski, conductor" REM DATE 2011 INDEX 01 29:57:27 TRACK 05 AUDIO TITLE "«Lieder eines fahrenden Gesellen»: IV. «Die zwei blauen Augen von meinem Schatz»" PERFORMER "Sarah Connolly, Orchestra of the Age of Enlightenment. Vladimir Jurowski, conductor" REM DATE 2011 INDEX 01 33:05:09



  • Показать сообщения:    

    Текущее время: 05-Дек 03:26

    Часовой пояс: UTC + 3


    Вы не можете начинать темы
    Вы не можете отвечать на сообщения
    Вы не можете редактировать свои сообщения
    Вы не можете удалять свои сообщения
    Вы не можете голосовать в опросах
    Вы не можете прикреплять файлы к сообщениям
    Вы не можете скачивать файлы