(Classical) Toivo Kuula - South Ostrobothnian Suites I & II; Festive March; Prelude and Fugue - Turku Philharmonic Orchestra, Leif Segerstam - 2015, FLAC (image+.cue) lossless


 

[Цитировать]

Toivo Kuula - South Ostrobothnian Suites I & II; Festive March; Prelude and Fugue - Turku Philharmonic Orchestra, Leif Segerstam
Жанр: Classical
Страна-производитель диска: Finland
Год издания диска: 2015
Издатель (лейбл): Ondine
Номер по каталогу: ODE 1270-2
Дата записи: 2015
Аудиокодек: FLAC
Тип рипа: image+.cue
Битрейт аудио: lossless
Продолжительность: 71:31
Источник: собственный рип
Наличие сканов в содержимом раздачи: да
Треклист:
Toivo Kuula (1883–1918)
[1] Festive March, Op. 13 (1910)
[2]-[6] South Ostrobothnian Suite No. 1, Op. 9 (1906–09)
[7]-[11] South Ostrobothnian Suite No. 2, Op. 20 (1912–13)
[12]-[13] Prelude and Fugue, Op. 10 (1909)
Исполнители:
Turku Philharmonic Orchestra
Leif Segerstam

Лог создания рипа

Exact Audio Copy V1.1 from 23. June 2015
EAC extraction logfile from 20. December 2015, 20:11
Turku Philharmonic Orchestra, Leif Segerstam / Kuula - Orchestral Works
Used drive : HL-DT-STDVDRAM GU70N Adapter: 1 ID: 0
Read mode : SecureUtilize accurate stream : YesDefeat audio cache : YesMake use of C2 pointers : No
Read offset correction : 48Overread into Lead-In and Lead-Out : NoFill up missing offset samples with silence : YesDelete leading and trailing silent blocks : NoNull samples used in CRC calculations : YesUsed interface : Native Win32 interface for Win NT & 2000
Used output format : User Defined EncoderSelected bitrate : 128 kBit/sQuality : HighAdd ID3 tag : NoCommand line compressor : C:\Program Files (x86)\Exact Audio Copy\Flac\flac.exeAdditional command line options : -V -8 -T "Date=%year%" -T "Genre=%genre%" %source%
TOC of the extracted CD
Track | Start | Length | Start sector | End sector --------------------------------------------------------- 1 | 0:00.00 | 8:42.48 | 0 | 39197 2 | 8:42.48 | 7:03.36 | 39198 | 70958 3 | 15:46.09 | 3:55.72 | 70959 | 88655 4 | 19:42.06 | 2:39.55 | 88656 | 100635 5 | 22:21.61 | 5:11.10 | 100636 | 123970 6 | 27:32.71 | 9:18.28 | 123971 | 165848 7 | 36:51.24 | 3:54.42 | 165849 | 183440 8 | 40:45.66 | 4:33.17 | 183441 | 203932 9 | 45:19.08 | 2:47.58 | 203933 | 216515 10 | 48:06.66 | 1:18.22 | 216516 | 222387 11 | 49:25.13 | 12:36.08 | 222388 | 279095 12 | 62:01.21 | 2:28.20 | 279096 | 290215 13 | 64:29.41 | 6:59.49 | 290216 | 321689
Range status and errors
Selected range
Filename C:\temp\Kuula - Orchestral Works\Kuula - Orchestral Works.wav
Peak level 98.7 % Extraction speed 4.8 X Range quality 100.0 % Test CRC 29280623 Copy CRC 29280623 Copy OK
No errors occurred
AccurateRip summary
Track 1 accurately ripped (confidence 1) [E35F81E9] (AR v2)Track 2 accurately ripped (confidence 1) [800754E1] (AR v2)Track 3 accurately ripped (confidence 1) [0D1A7D29] (AR v2)Track 4 accurately ripped (confidence 1) [26C62A4C] (AR v2)Track 5 accurately ripped (confidence 1) [E8D58E4A] (AR v2)Track 6 accurately ripped (confidence 1) [D4DFDE94] (AR v2)Track 7 accurately ripped (confidence 1) [B6F98BF0] (AR v2)Track 8 accurately ripped (confidence 1) [115E9CD1] (AR v2)Track 9 accurately ripped (confidence 1) [B58A9D31] (AR v2)Track 10 accurately ripped (confidence 1) [C6C56D70] (AR v2)Track 11 accurately ripped (confidence 1) [B431B214] (AR v2)Track 12 accurately ripped (confidence 1) [803CB9DA] (AR v2)Track 13 accurately ripped (confidence 1) [2DF21D8A] (AR v2)
All tracks accurately ripped
End of status report
==== Log checksum D414CDFD442F7F0AC7C7A7D7381DFD3A92C434662FBBA9A76A3423F79FFDA03A ====



Показать сообщения:    

Текущее время: 24-Янв 12:14

Часовой пояс: UTC + 3


Вы не можете начинать темы
Вы не можете отвечать на сообщения
Вы не можете редактировать свои сообщения
Вы не можете удалять свои сообщения
Вы не можете голосовать в опросах
Вы не можете прикреплять файлы к сообщениям
Вы не можете скачивать файлы